开启左侧

黑豹2.Black.Panther.Wakanda.Forever.2022.1080p.3D.BluRay.Half-SBS.x264.DTS-HD.MA.7.1 3D电影

蓝鸟 发表于 2023-4-7 17:59:14 | 显示全部楼层 |阅读模式
黑豹2 豆瓣评分: 5.4分
年代:2022年上映
片长:161分钟
类型:剧情 科幻 奇幻 冒险 
导演:瑞恩·库格勒 / Ryan Coogler
主演:利蒂希娅·赖特 / 露皮塔·尼永奥 / 丹娜·奎里拉 /温斯顿·杜克 /安吉拉·贝塞特
3 D 格式:hsbs half-ou sbs 

封装音轨:DTS-HD.MA 7.1 Dolby TrueHD 7.1 Dolby Atmos 
简  介 ; N3 ~+ Y6 [: v1 F% Y5 D
" B. u6 A9 N, Z$ A, j7 N
  在“黑豹”特查拉国王不幸去世后,苏睿(利蒂希娅·赖特 Letitia Wright 饰)、奥克耶(丹娜·奎里拉 Danai Gurira 饰)、拉曼达女王(安吉拉·贝塞特 Angela Bassett 饰)、姆巴库(温斯顿·杜克 Winston Duke 饰)为了保护瓦坎达而战。瓦坎达人努力迎接他们的新篇章,他们必须在娜吉雅(露皮塔·尼永奥 Lupita Nyong'o 饰)和罗斯探员(马丁·弗瑞曼 Martin Freeman 饰)的帮助下团结起来,为瓦坎达王国开辟新道路。8 I# c0 T% j; a

% p& Y9 }  Z- C) t2 v2 a& b
, W7 f9 N% |: v) ~5 _获奖情况 
9 R+ @0 G, Q! @- t7 R& `/ w7 R  第95届奥斯卡金像奖 (2023)
2 s9 n6 J2 s1 R& {; ]$ z' l# F( @9 f# Z  最佳女配角(提名) 安吉拉·贝塞特. c6 y' Z( E4 O0 T. l! e
  最佳视觉效果(提名) 克雷格·哈迈克,R·克里斯托弗·怀特,杰弗里·鲍曼,丹尼尔·萨迪克
: |1 E6 R! `5 H+ B2 Q8 k  最佳服装设计 露丝·E·卡特
3 F# o8 b3 m& v3 C' n! r5 d3 }  最佳化妆与发型设计(提名) 乔尔·哈罗,卡米尔·弗伦德6 N9 O" V1 s1 Z4 _
  最佳原创歌曲(提名) 特姆斯,路德维格·戈兰松,瑞恩·库格勒,蕾哈娜# k  v* g7 D. D& |
  第80届金球奖 (2023)
3 [; s! k7 a, J! O  电影类 最佳女配角 安吉拉·贝塞特( U" L) H( f; i- K$ o1 {
  电影类 最佳原创歌曲(提名) 路德维格·戈兰松,瑞恩·库格勒,蕾哈娜
" ?( B# O/ ^$ t4 n/ e, s( W. }  第76届英国电影学院奖 (2023)
( D8 H0 S# ~: T  |- y  w9 m  电影奖 最佳女配角(提名) 安吉拉·贝塞特
4 l1 a% _8 u# F( m& K) Z: E6 Y  第29届美国演员工会奖 (2023)
, b; }' W4 S6 A+ \& e) q5 x  电影奖 最佳女配角(提名) 安吉拉·贝塞特
5 w. R4 F4 w9 j/ }; m  Q  第34届美国制片人工会奖 (2023)
, U- L1 ^% o; f& O/ i+ X! ?# T* r  R  最佳电影制片人奖(提名)" |9 x' f5 r( F" X5 e6 \% V
2 l/ z9 e7 b7 H4 Y. z; y

$ G7 j& O% E5 d/ t/ b
Video) J' Y" ]) d0 e2 D) V
ID : 1
4 n3 T  c" s: S! z; J; @0 ZFormat : AVC
, E9 F. t  {4 w2 X3 w% c& XFormat/Info : Advanced Video Codec
  L3 }7 f8 _! E- n* u7 e) t6 pFormat profile : High@L4.1
& d! {; Z+ e0 y; ^9 }1 K% \1 JFormat settings : CABAC / 2 Ref Frames" p" ^! l  u1 \0 x( A+ L
Format settings, CABAC : Yes) `- ]) m8 ]( k
Format settings, Reference frames : 2 frames* F3 q: C$ o1 C3 f3 u4 M) ^4 U, ?
Format settings, GOP : M=3, N=248 [5 ]6 x. G" t# h
Codec ID : V_MPEG4/ISO/AVC! ~8 h1 ]3 I# @" |! d8 x6 Y
Duration : 2 h 41 min" a, h6 ~0 h1 o3 Z
Bit rate : 13.3 Mb/s, H6 z9 J2 Q! D( ^
Nominal bit rate : 15.5 Mb/s6 P4 R+ u4 H, q; `
Width : 1 920 pixels
  j2 D4 O( p( Z5 a+ S- jHeight : 1 080 pixels
! r6 E4 X+ ?' c  C7 ^. a7 CDisplay aspect ratio : 16:9
7 k3 {1 ]& C1 Z2 y; ?% }  n! UFrame rate mode : Constant  v3 w7 U& t& K' g! B
Frame rate : 23.976 (24000/1001) FPS
9 T/ ?8 T5 J1 I+ PColor space : YUV7 ^+ m7 t) g9 [7 c' c/ c
Chroma subsampling : 4:2:01 g% Z) W& T3 a2 L, y
Bit depth : 8 bits- P% T5 e( A, ~6 t
Scan type : Progressive
  t  {$ ~& N4 H8 p' FBits/(Pixel*Frame) : 0.268  J! @. b) [# r# u2 N) X  f7 Q6 L
Stream size : 15.0 GiB (59%)
& z( c0 U( r3 R$ O4 q; e7 Z1 ]. e+ h- dWriting library : x264 core 148
7 W2 o% V8 P9 [) Q4 q; }, @+ SEncoding settings : cabac=1 / ref=1 / deblock=1:-1:-1 / analyse=0x3:0 / me=hex / subme=5 / psy=0 / mixed_ref=0 / me_range=16 / chroma_me=1 / trellis=0 / 8x8dct=1 / cqm=0 / deadzone=21,11 / fast_pskip=0 / chroma_qp_offset=0 / threads=48 / lookahead_threads=8 / sliced_threads=0 / nr=0 / decimate=1 / interlaced=0 / bluray_compat=0 / constrained_intra=0 / bframes=2 / b_pyramid=0 / b_adapt=1 / b_bias=0 / direct=1 / weightb=0 / open_gop=0 / weightp=0 / keyint=24 / keyint_min=13 / scenecut=40 / intra_refresh=0 / rc_lookahead=24 / rc=cbr / mbtree=0 / bitrate=15500 / ratetol=1.0 / qcomp=0.60 / qpmin=0 / qpmax=69 / qpstep=4 / vbv_maxrate=15500 / vbv_bufsize=15500 / nal_hrd=none / filler=0 / ip_ratio=1.40 / pb_ratio=1.30 / aq=1:1.000 A6 W5 R& b* u# ^+ z; p
Default : Yes# g* ^1 \. L# s5 _: l; A- J
Forced : No
2 k9 L- [  h% D+ mColor range : Limited# o: l& |' S; S3 r. c) C5 {
Color primaries : BT.709+ U( h9 Y/ a: G+ ?
Transfer characteristics : BT.7096 c/ Y5 A% O' R4 _
Matrix coefficients : BT.7091 W. l# M+ K9 ]" [
Audio #1
; M% q% F2 e( b0 Q' eID : 2
. c4 D0 D2 Y& P- [3 D2 z% }% T' DFormat : DTS XLL
! M4 e  `9 Y4 F( Y6 AFormat/Info : Digital Theater Systems
, M. o0 r6 Q* O; kCommercial name : DTS-HD Master Audio- b# K- X, b  Y5 L( E) k  m6 P
Codec ID : A_DTS" M0 C& a7 O6 ]/ s
Duration : 2 h 41 min
7 `# l; W  K9 p7 o/ aBit rate mode : Variable/ B7 N* u% C$ m, L  ]: A2 V
Bit rate : 4 844 kb/s
# _* g+ s+ {# ^7 @) AChannel(s) : 8 channels
) x3 v" G9 t7 M: m  Q) [2 ?Channel layout : C L R LFE Lb Rb Lss Rss
) n% a! t% `& g; j5 L- z0 ZSampling rate : 48.0 kHz
2 U0 V2 s( f+ {+ {Frame rate : 93.750 FPS (512 SPF)
2 b( t% d$ g/ A9 n1 CBit depth : 24 bits( B" j, B8 m" |2 Y* U/ z+ t/ S
Compression mode : Lossless
, b( C# ^+ w. J* Z$ B& bStream size : 5.46 GiB (22%)9 C; j! N9 k/ T, j9 |2 q( u+ I
Title : DTS-HD MA 7.1
; k7 }/ b  s8 V7 |: h5 T/ L; ~9 KLanguage : English
' e! v. m" e1 g6 U; \3 BDefault : Yes
) Y( B- ~: Z0 D# m) bForced : No
% i1 A5 Z5 X8 p: Q1 `+ EAudio #23 T) A( G* h( l2 d' {
ID : 3  v: p5 \' `) C; k$ T; a4 M# i
Format : DTS XBR
3 O/ Z  H5 J' a& @4 }Format/Info : Digital Theater Systems
6 @: {9 ?7 c5 M- L) XCommercial name : DTS-HD High Resolution Audio/ b$ e/ K% @% r/ h0 s
Codec ID : A_DTS
8 r; V. A$ l+ GDuration : 2 h 41 min
6 l0 d) z( x; [3 V  @( _Bit rate mode : Constant1 \$ V5 x" ?# _: O9 ^, |- \7 R
Bit rate : 2 046 kb/s3 v5 U* I, f/ V" q5 L+ ]
Channel(s) : 8 channels6 o+ F0 o1 a2 c5 l! P4 n; H
Channel layout : C L R LFE Lb Rb Lss Rss7 p) x9 i- m3 C# k! b2 C" {8 A) Z' E7 T
Sampling rate : 48.0 kHz, I/ t) [$ u1 s  [. B
Frame rate : 93.750 FPS (512 SPF)
! W$ i4 M" x0 ]: _- e3 |, _' bBit depth : 24 bits0 H, E& u1 @0 E+ Y
Compression mode : Lossy5 X0 n( `! d- `5 Z, a0 }
Stream size : 2.31 GiB (9%)) w: Z% ^. r3 ]# }& m$ k2 |, A% y; t
Title : DTS-HR 7.1
8 k# e; y! f/ t/ k$ Z$ z" |Language : Japanese* |% P+ N4 W& ], ]
Default : No8 W/ r- O- n- o+ {6 B- Q/ J4 _& b
Forced : No( h  J( L/ o( @6 Y
Audio #30 W6 O! {( `- Z! g1 i8 q9 L$ v
ID : 4
& T7 Q  r8 X/ n! ^8 ~# MID in the original source medium : 4353 (0x1101); i* _& n3 L# y) c9 u+ X
Format : AC-32 b( k# g& L; G3 W8 j, g& {
Format/Info : Audio Coding 3& u' T6 C+ N  B, H
Commercial name : Dolby Digital
6 {( Z' ~* a5 z% g$ E* dCodec ID : A_AC32 K: G& K" u. a# s" X+ B; O
Duration : 2 h 41 min
5 z0 [/ m6 u- J  R8 LBit rate mode : Constant
; f. S% W: p4 W) r$ A; ]- v" ZBit rate : 320 kb/s0 P! _  [$ D/ ?4 j! O( Z
Channel(s) : 2 channels
: z* x3 n+ T! @' Q( P0 ^Channel layout : L R
! A: a1 ]3 a; {Sampling rate : 48.0 kHz
0 t' p6 e5 v0 w6 d  l8 rFrame rate : 31.250 FPS (1536 SPF)
% U. w4 o$ Z% g& H' J' R! ICompression mode : Lossy
& P* e+ e' c% T' C+ LStream size : 369 MiB (1%)
! o0 C# `" X% f3 L& v0 `/ k, J( eTitle : DD 2.05 I8 \# m6 ^0 _7 D& Y- [
Language : English$ G6 d0 \6 l1 g
Service kind : Complete Main
. x: Z, `1 p0 a! mDefault : No& m( }& V, d0 w7 K6 Z/ S8 k0 |2 [3 I
Forced : No! J" }9 A* j5 A4 x
Original source medium : Blu-ray. J  }* {' \* s/ r
Audio #4
9 |/ E( R; c; |- NID : 51 p: A' {, ]7 Q+ W4 C# \
Format : E-AC-3
( M: y, H0 n* O* ?! W2 S0 ~Format/Info : Enhanced AC-3
) a! j9 b% A, y" @! Z, M; K, i. zCommercial name : Dolby Digital Plus8 v! W9 i6 x& Z+ b5 a' i
Format profile : Blu-ray Disc
- R# R$ s4 `2 eCodec ID : A_EAC3
! D6 T. i* K6 e/ H+ q3 WDuration : 2 h 41 min9 @' R/ ]3 D4 _! n' [$ u0 P3 A. y; x
Bit rate mode : Constant
" ?. H, K6 R: \; W0 B; LBit rate : 1 024 kb/s
6 r# H6 S# P' Q! sChannel(s) : 8 channels# W: D% a: _* P; A9 V  T' P
Channel layout : L R C LFE Ls Rs Lb Rb
$ Q" Z7 i/ {. y4 c) s9 fSampling rate : 48.0 kHz
: T* t) L& ?# P/ `Frame rate : 31.250 FPS (1536 SPF)0 _- w6 m# T1 |. ^: _! U# h
Compression mode : Lossy
8 ^2 n" d$ [0 X+ T1 L" u7 ~Stream size : 1.15 GiB (5%)
1 H% ^# z: T' gTitle : DDP 7.1
% x6 p1 u. S8 `/ G) h* k3 {/ MLanguage : Spanish
* M# q. I: J- [# ]" G& a: VService kind : Complete Main! `6 t6 A' O! }8 t6 P3 ?- s
Default : No
& K+ B6 a# L( a) ^Forced : No  j9 x& f/ F' q! Q, l) n' R3 p) x! a
Audio #59 ~& S2 N) p, e$ P3 m; z* a
ID : 6
! N: ~3 V5 \+ k* [/ M- AID in the original source medium : 4354 (0x1102)
  `! G5 j: g% K5 J3 i5 ZFormat : AC-3
2 y+ u, I4 R& V8 i/ _; t* f8 c; h, JFormat/Info : Audio Coding 30 [4 Y2 B4 Y" x5 Z2 e* i
Commercial name : Dolby Digital1 @' N5 l4 }! }- D
Codec ID : A_AC33 M& C7 k+ v2 p: I5 U7 h3 i
Duration : 2 h 41 min
, \0 |# B1 p. V* \% |( `3 M& ~Bit rate mode : Constant; j* I3 e3 [0 M! Y- l2 M' s; |! C7 [
Bit rate : 640 kb/s
2 r6 x4 ]1 z9 h% \$ d3 K$ v; zChannel(s) : 6 channels
0 x1 z3 r9 `0 r3 v6 D% S+ g, `Channel layout : L R C LFE Ls Rs6 \& a0 O) `+ S. U
Sampling rate : 48.0 kHz
7 B* s5 J9 t0 w6 u+ n  I% W9 m* OFrame rate : 31.250 FPS (1536 SPF)& `5 B+ h  |8 X! m6 C; v4 b
Compression mode : Lossy
. N/ {5 k  z* m. SStream size : 738 MiB (3%)
5 q2 V9 @. s8 [* [' r1 jTitle : DD 5.1
* {4 T6 u# E3 S& t6 z9 oLanguage : Spanish0 u  }$ f! S# n3 L; b) e
Service kind : Complete Main
' ]8 T: t2 u* w& yDefault : No
" ?- Y, E: S/ l% s& p8 W$ T$ X0 gForced : No# z1 C, e  i4 c9 Q' G( |) C: n
Original source medium : Blu-ray
4 L9 N3 T, ?4 \Audio #6
) z+ B  K$ x/ m  f' BID : 7$ ]  p- `& `( ]: k4 k" T$ x
ID in the original source medium : 4355 (0x1103)& O6 l3 u- Q/ u/ L+ O  n& l
Format : AC-3
" D: r! `8 ~3 dFormat/Info : Audio Coding 3
0 }% w% W) e% y2 z+ _9 z4 w/ SCommercial name : Dolby Digital% A2 o/ ~5 U/ C  \; \4 G
Codec ID : A_AC3
1 F. I9 s- ~4 ~9 a, eDuration : 2 h 41 min
, i4 Z, |3 ~( s! b5 iBit rate mode : Constant/ X8 Y+ T2 F9 Q7 i+ y* k
Bit rate : 192 kb/s. S: m0 y6 _, M2 |! `7 G" z3 d6 p
Channel(s) : 2 channels/ a3 j# z& H2 e& ~+ ?, i
Channel layout : L R% N5 {. o$ R& j/ U, q
Sampling rate : 48.0 kHz
* q: S& b* j% H4 ?- ]- a$ j2 bFrame rate : 31.250 FPS (1536 SPF): H% M: t- B7 S
Compression mode : Lossy
6 e- v, ?+ H8 {& F8 OStream size : 222 MiB (1%)
: c: s! i3 K9 e4 {3 UTitle : DD 2.0 - COMMENTARY
, h' r' d* v; n% R' w+ MLanguage : English
  r  _+ U1 w& c' VService kind : Complete Main5 o  n2 g0 m6 i* C! b% T; j  Y0 B
Default : No
" c# l/ E; c( m! bForced : No
' L/ }4 N) P7 pOriginal source medium : Blu-ray
( w# Z$ J- P& W; ?$ S' t0 ]Text #1
0 j4 F, e$ v4 u$ D, [1 u; V' ]ID : 86 J+ f/ D* g- p& D7 F6 y
Format : PGS$ T6 d+ l) D! Z' a! K2 E8 P$ W
Muxing mode : zlib
' h" f$ Z) A3 `, |, _Codec ID : S_HDMV/PGS& Z2 _' L: O' M% N/ x/ W$ `6 i+ L
Codec ID/Info : Picture based subtitle format used on BDs/HD-DVDs
; L( H3 p/ m- f) v$ EDuration : 2 h 33 min! X( N' I6 U1 D! p0 j
Bit rate : 39.0 kb/s
6 w0 R2 ~1 w+ `2 {Frame rate : 0.380 FPS
& R/ |  K6 b! n8 a7 p) `Count of elements : 34967 j. L. I+ Z( P3 u5 L( s
Stream size : 42.8 MiB (0%)9 v: b4 d& u5 E8 V; ?5 F
Language : English
% C* f: \0 P& ^Default : Yes1 e* |$ C3 B3 j- L/ g
Forced : No+ b5 X; D# g5 F
Text #2; x1 ]8 b6 N# i2 i/ M; y0 t! @/ I
ID : 9
5 B& \' o+ p6 T) {- @Format : UTF-8- ]: b  X* z( ^( w
Codec ID : S_TEXT/UTF8
- ]6 |1 w; p; a; K! eCodec ID/Info : UTF-8 Plain Text% |9 y0 d; O* o( l' T* h- u
Duration : 2 h 37 min
% A6 s; ~& L9 D5 J1 Z" ?! PBit rate : 44 b/s
7 W- H0 C/ V+ SFrame rate : 0.192 FPS* ^2 d6 ?# q: l, i9 Z. i( C+ {
Count of elements : 18138 h$ Y/ q7 x3 s/ q
Stream size : 51.2 KiB (0%)
3 Q9 O* U2 ~. ]/ K3 A4 ULanguage : English, N4 f) k# p: f$ [/ D  ]2 T7 l/ N9 b
Default : No" y1 c( O/ O# X' S
Forced : No
: k4 |% e4 E8 I7 BText #3
( y6 J2 y7 i& p! p  L( wID : 10" [$ w1 I! l- X+ b+ r
Format : UTF-8
! Y  p) {2 q2 [" UCodec ID : S_TEXT/UTF8. {+ Q' ^( |+ S! V8 F
Codec ID/Info : UTF-8 Plain Text1 f$ W7 M1 {0 L- H& h
Duration : 2 h 38 min. x' Y. O! s' k! e# g( K& A
Bit rate : 55 b/s! k3 l/ }; I& h. G
Frame rate : 0.253 FPS
  x" K0 J4 j9 T4 J, n3 i; qCount of elements : 2406
# l0 y, @9 v8 BStream size : 64.0 KiB (0%)
( w1 ]# R4 s. J' X/ w# P7 k: A$ _Title : SDH
$ e0 {# z: J! G, g+ O8 ~' p" z5 L9 {Language : English( \4 M  D6 q7 f: C- Z1 t+ B2 c9 w0 s
Default : No
( Z0 e( V% z) K, Y2 xForced : No: Q. v: e2 F1 g
Text #4
- X0 `/ O/ {" W) N" iID : 11* L- `, l- [; o3 o
ID in the original source medium : 4608 (0x1200), t8 q2 g) k' n+ M# u
Format : PGS
7 a# n9 q& Y" n: h9 GMuxing mode : zlib% ~+ u- W) Z  a0 ~; n3 t: y. W* F
Codec ID : S_HDMV/PGS
) U. M" m; U% S* c# J2 SCodec ID/Info : Picture based subtitle format used on BDs/HD-DVDs
& X& k8 P# P3 H3 W; G# t, v" PDuration : 2 h 38 min* ~4 p+ j- D% B
Bit rate : 38.8 kb/s
7 a( f- d% k. k! i* q' ^" m% LFrame rate : 0.511 FPS; C# j: m( e8 ?  G/ _4 F
Count of elements : 4856/ B+ h" R  z' {  d6 r& r+ l3 S
Stream size : 44.0 MiB (0%)
$ p0 u' r6 f$ D- ELanguage : English! r" H. K$ C* P( n% ^
Default : No
$ e8 m; }6 R2 `/ ~: TForced : No7 T3 ]# X6 g  r' B6 E
Original source medium : Blu-ray) l- e! w6 n9 z! {0 O6 z9 ~
Text #5  E/ K* G" M: Q* [7 P$ t
ID : 12  p* o8 e: F6 c) c
ID in the original source medium : 4609 (0x1201)5 n. J' H6 \# ~" ~
Format : PGS* Q- V0 d$ H! _
Muxing mode : zlib
7 ^: _2 t3 H) vCodec ID : S_HDMV/PGS" @  I6 l7 X$ W& r
Codec ID/Info : Picture based subtitle format used on BDs/HD-DVDs
6 f: Q) \; V+ `Duration : 2 h 41 min" a& P/ J6 ?/ e) \$ M7 U
Bit rate : 27.4 kb/s% ^" z3 ~* c6 q. o7 d
Frame rate : 0.360 FPS
! I" C0 \' z* ~' y$ ~- KCount of elements : 3476
' I3 F6 L6 d% R- G3 q5 G. r* zStream size : 31.6 MiB (0%)
4 C2 R) w* X1 ]4 KLanguage : Spanish9 A+ g  z0 @$ [# V! H& S9 ]
Default : No
% ]0 q4 v( ^; k+ M4 @( E5 U9 TForced : No
" @) v( `$ C- W+ N. u* b& e- COriginal source medium : Blu-ray" D+ N2 g- R5 M* G
Text #6& k" s, Q* X# K; q/ d# h( P
ID : 132 G, D9 T9 Q( p
ID in the original source medium : 4610 (0x1202)5 L* L. f# v- U* b) \
Format : PGS2 K9 j! [+ ~, v7 \
Muxing mode : zlib0 h% }3 g7 d* J' Z8 `6 f3 s
Codec ID : S_HDMV/PGS
! }& Y4 B' V& f5 J/ u6 KCodec ID/Info : Picture based subtitle format used on BDs/HD-DVDs7 V  T& m$ C- D0 u2 r
Duration : 2 h 41 min
5 w4 {9 P: A* \9 TBit rate : 74.5 kb/s
7 ~- z2 F7 b' |9 r* |# i' X, N" lFrame rate : 0.711 FPS( r* O+ D# S. k! f) k
Count of elements : 6872
7 @; D* C* J! X  V; uStream size : 85.9 MiB (0%)
. H& O) L& C* I/ a( B! E  s) @5 OTitle : COMMENTARY) F- w; i& R9 L" E) T2 d3 A, T1 I6 R
Language : English- k( C3 k8 {: @6 i3 T
Default : No" k: ^' X. D7 Z) @! A
Forced : No
; k( A$ Q' d' f3 f: F+ g1 YOriginal source medium : Blu-ray/ R  U7 }' u2 @7 f' c& _" @, C
Text #7) R- n. H" W. T+ B
ID : 14
- P: k, ]% T7 S4 CID in the original source medium : 4611 (0x1203)$ }# I# B! \. R+ U' E" l3 r
Format : PGS
6 M- Y: G( L5 r7 ?Muxing mode : zlib9 ]) x! Y5 Y2 T
Codec ID : S_HDMV/PGS
- ]  R' F( \% ZCodec ID/Info : Picture based subtitle format used on BDs/HD-DVDs
" i; q0 d( _  e! |Duration : 2 h 41 min& X/ Y7 q1 S7 S: `& {
Bit rate : 58.0 kb/s
* z" l7 X, l0 Q, {5 \% j; eFrame rate : 0.633 FPS* v2 W$ k/ w: a2 N; y1 K2 l
Count of elements : 6118; c! D! x9 T9 R4 ]# Y. W
Stream size : 66.8 MiB (0%)
/ f+ `: W7 {  s1 JTitle : COMMENTARY7 b1 Z2 W5 b! M
Language : Spanish( H& W0 R6 ]- Y
Default : No
& h8 R5 K3 P2 M  `4 P2 m! jForced : No
3 i) G# M7 G" f0 L$ uOriginal source medium : Blu-ray
" H6 s$ j- P+ I; c6 |1 I1 pText #8
% Z' c: L- j; a+ cID : 15" g) @# V0 d8 ?+ T. \# O2 _
ID in the original source medium : 4612 (0x1204)
5 s# n1 p/ u% O  [Format : PGS5 r4 Q, V$ }; k/ B
Muxing mode : zlib
! p- `. G4 g0 v( ?1 u4 w: P+ HCodec ID : S_HDMV/PGS
" o# s: l! g' cCodec ID/Info : Picture based subtitle format used on BDs/HD-DVDs
& E3 [- o" t! i2 _* B# H! N8 aDuration : 2 h 39 min$ r4 o) i$ O2 Q& j
Bit rate : 2 161 b/s1 Q4 n9 V! X! X; w
Frame rate : 0.038 FPS! d8 F: E- G, [, L( i4 D( _
Count of elements : 366
: ?& J) s+ ~2 E! }- G0 PStream size : 2.46 MiB (0%)+ r) \) n1 Y% q# w9 `
Title : FORCED
' B( I; U! Q$ Z3 ^' N5 FLanguage : Spanish
, B3 t7 t) u7 p* h# r4 ~8 g$ z7 y( zDefault : No% z' P  m& f( O9 s
Forced : No
3 U* F. k! y: o! J3 f% c+ AOriginal source medium : Blu-ray
* k$ T/ d9 l7 b8 TText #9
6 o5 ]# \* {6 _. D4 S3 oID : 16
# m0 ^1 S5 O) E5 G' h. @ID in the original source medium : 4768 (0x12A0)
+ ^" h/ _- G( F& }2 d+ HFormat : PGS
1 j( q1 }! S/ z! A1 M0 EMuxing mode : zlib: |" _4 H% q$ p3 e+ E7 t4 x
Codec ID : S_HDMV/PGS/ u6 m: @( Y6 x* R1 j2 t0 F3 y* M) `
Codec ID/Info : Picture based subtitle format used on BDs/HD-DVDs( Z- ]/ u  o; i9 A  t, Y
Duration : 2 h 38 min
! A& ~1 Z5 Z* `8 xBit rate : 38.5 kb/s
3 U% d8 Z% T+ v7 @% U" UFrame rate : 0.511 FPS; O4 b) ]+ }" Q0 b9 C. n
Count of elements : 48568 I' a7 @, F, G1 K  I4 J
Stream size : 43.6 MiB (0%). y6 w. e) h2 ]/ A( d
Language : English6 s+ d' m9 I- `
Default : No
! I' w8 W6 u. W- k/ Q. l9 i% EForced : No( M+ U- Y0 X% y% r
Original source medium : Blu-ray
+ o* G0 Y: L+ w- L: v* p0 o7 YMenu
! ?' Y) h# z9 K& e$ }4 `00:00:00.000 : en:Chapter 01
5 n* T2 V  [" N, z# V00:06:23.716 : en:Chapter 027 O* @! _1 `, O. S
00:11:47.581 : en:Chapter 03
8 @5 K8 S+ p$ B00:18:45.916 : en:Chapter 04* n# R( ^* X- H: T. ]; E0 u
00:23:16.686 : en:Chapter 05- Q8 X' T( R% `; ^
00:29:52.415 : en:Chapter 06
1 e! Y0 L: E; D7 x8 h00:33:12.949 : en:Chapter 07
# g4 }4 T4 u3 c/ N# r$ m00:35:17.740 : en:Chapter 08
" ^) g9 N! m9 S7 N/ i00:39:54.183 : en:Chapter 09- w5 ~* t- [4 l/ Q& z) w: P
00:46:41.715 : en:Chapter 10
6 A- U$ K  B6 z5 Y2 ~+ @00:53:11.021 : en:Chapter 11( J+ ?* }( ]2 ^- |
00:58:20.997 : en:Chapter 12
3 ?$ x& Z6 S7 p0 C7 N1 U- l01:02:33.166 : en:Chapter 13: C& d* ~; w; C' L8 z( p5 r4 {
01:04:52.388 : en:Chapter 146 H' Q5 {/ |9 j+ N
01:12:35.434 : en:Chapter 15  z3 Z, A) v4 K9 Z* J
01:21:47.193 : en:Chapter 16
  e4 ]- Q6 \# Z; Z7 H/ J0 ~01:28:29.345 : en:Chapter 172 b# }& G9 P3 ?$ Z0 |
01:40:24.018 : en:Chapter 18
% l0 ]6 C: F  ^* {9 ^9 c01:44:45.195 : en:Chapter 19- C6 N9 r6 l& c3 y$ X7 h( _. ]  f( [
01:53:09.407 : en:Chapter 208 A+ V  H0 }; p8 N
01:58:03.576 : en:Chapter 21
  Y* ~/ A3 O3 o- j5 [$ o! Y. `02:04:36.177 : en:Chapter 22
+ a  F; r: G( [( k5 L02:10:13.680 : en:Chapter 23
+ F! s+ o  z" p! N8 b02:19:33.448 : en:Chapter 24
: x7 G7 c( w4 b: t4 _- j7 t02:24:00.882 : en:Chapter 251 `* I7 g# {5 `9 }8 d3 s, D
02:31:27.661 : en:Chapter 26
: g5 {& l% r; |* k02:33:54.308 : en:Chapter 27
  c3 q- D% Q. n
黑豹2.Black.Panther.Wakanda.Forever.2022.1080p.3D.BluRay.Half-SBS.x264.DTS-HD.MA.7.1-FGT 25.33GB

Black.Panther.Wakanda.Forever.2022.1080p.3D.BluRay.Half-SBS.x264.DTS-HD.MA.7.1-FGT.torrent ( 32.36 KB )

6 x# v* m4 I: k+ t7 l8 N
0 J( R  U0 z% D$ h( k
黑豹2.Black.Panther.Wakanda.Forever.2022.1080p.3D.BluRay.Half-OU.x264.TrueHD.7.1.Atmos-FGT 27.52GB

Black.Panther.Wakanda.Forever.2022.1080p.3D.BluRay.Half-OU.x264.TrueHD.7.1.Atmos-FGT.torrent ( 35.1 KB )


9 D* {$ n5 k+ }/ W0 V4 u
! z7 ?% H7 C6 V/ i
黑豹2.Black.Panther.Wakanda.Forever.2022.1080p.3D.BluRay.Half-SBS.x264.TrueHD.7.1.Atmos-FGT 25.95GB

Black.Panther.Wakanda.Forever.2022.1080p.3D.BluRay.Half-SBS.x264.TrueHD.7.1.Atmos-FGT.torrent ( 33.15 KB )


2 C7 T: l" l0 d+ b. m8 t1 E& b9 H+ k$ E7 D" E
黑豹2.Black.Panther.Wakanda.Forever.2022.1080p.3D.BluRay.AVC.DTS-HD.MA.7.1-3DT 46.11GB

Black.Panther.Wakanda.Forever.2022.1080p.3D.BluRay.AVC.DTS-HD.MA.7.1-3DT.torrent ( 58.32 KB )

/ L! z: Y! I$ S
' N8 t: b+ B  g0 M* O! G3 [4 W
黑豹2.Black.Panther.Wakanda.Forever.2022.1080p.3D.BluRay.Half-OU.x264.DTS-HD.MA.7.1-FGT 26.90GB

Black.Panther.Wakanda.Forever.2022.1080p.3D.BluRay.Half-OU.x264.DTS-HD.MA.7.1-FGT.torrent ( 34.31 KB )

& {. V3 w5 z' e0 x4 `

7 e1 Q" G9 k5 a- {8 ]4 e
/ h5 E9 P; \9 ]% G6 s
回复

使用道具 举报

全部回复5 显示全部楼层
yhjunn手机认证 发表于 2023-4-10 13:16:08 来自手机 | 显示全部楼层
此帖值得顶,,,,。
回复 支持 反对

使用道具 举报

shiji1973 发表于 2023-12-25 08:50:58 | 显示全部楼层
感谢分享精彩电影
回复 支持 反对

使用道具 举报

Johnzheng手机认证 发表于 2024-1-21 19:11:24 | 显示全部楼层
大不如前部啊
回复 支持 反对

使用道具 举报

jayden3618手机认证 发表于 2024-2-14 08:46:51 | 显示全部楼层
谢谢分享  w, d5 @& b% C4 m
回复

使用道具 举报

tvxq手机认证 发表于 2024-4-7 09:20:29 | 显示全部楼层
感谢楼主8 u2 G  q3 U4 g5 C
回复

使用道具 举报

声明:您在社区发表的所有信息仅代表用户个人观点,与本网站立场无关,希望各位烧友理性发言,不发表违法国家法律禁止的话题。

您需要登录后才可以回帖 登录 | 立即注册

本版积分规则

联系客服 关注微信 下载APP 返回顶部 返回列表