开启左侧

雷神4:爱与雷霆 Thor.Love.and.Thunder.2022.1080p.3D.BluRay.x264.TrueHD.7.1.Atmos-3D原盘下载

小山雀 发表于 2023-3-10 14:02:16 | 显示全部楼层 |阅读模式
雷神4:爱与雷霆 豆瓣评分: 5.4分
年代:2022年上映
片长:119分钟
类型:喜剧 动作 爱情 科幻 奇幻 冒险 
导演:塔伊加·维迪提
主演:克里斯·海姆斯沃斯 / 娜塔莉·波特曼 / 克里斯蒂安·贝尔 / 泰莎·汤普森 / 塔伊加·维迪提
3 D 格式:half-ou sbs 

封装音轨:DTS-HD.MA 7.1 Dolby TrueHD 7.1 
简       介* h3 c8 N* j% L7 h6 ]+ h

- k) g9 H: W; N5 W6 D: _% ]7 ?  影片故事发在在《复仇者联盟4:终局之战》事件之后,雷神索尔(克里斯·海姆斯沃斯 饰)踏上了一段他从未经历过的旅程:找回自我。但索尔的退休计划却被企图消灭众神的屠神者格尔(克里斯蒂安·贝尔 饰)打断,他只好与女武神瓦尔基里(泰莎·汤普森 饰)和寇格(塔伊加·维迪提 饰)再次联手,其间更发现自己八年未见的前女友简·福斯特(娜塔莉·波特曼 饰)获得了雷神之力、挥舞着多年前在自己面前毁灭的雷神之锤,令索尔惊讶不已。他们一起踏上了星际冒险,以揭开格尔的复仇之谜,并在为时已晚之前阻止他。
0 D6 G/ H" n6 G
, W6 H/ L9 b8 a影片参数6 R2 c: |% S+ Y: B) R
Video
* [( j$ s" H  W5 k# S" S1 G- j3 ^ID                                       : 1
* x$ `0 c1 }+ b7 Q  \Format                                   : AVC( b- C; j! @) }
Format/Info                              : Advanced Video Codec: q) c1 W5 Q+ i$ E
Format profile                           : [email protected]
! M7 k1 I/ N& l! }) V3 O$ ?- {Format settings                          : CABAC / 2 Ref Frames1 s& \. P6 P5 W* t2 m' h$ B6 G
Format settings, CABAC                   : Yes
1 a. y1 h* }' r8 W( T5 \Format settings, Reference frames        : 2 frames; L0 v, C5 i- O2 n! z
Format settings, GOP                     : M=3, N=24
$ a  v6 S; c' L, p) M, U* q9 i* A6 yCodec ID                                 : V_MPEG4/ISO/AVC0 s5 P+ P: G, n' V7 q% P
Duration                                 : 1 h 58 min4 M/ R4 w8 R2 ^5 i' J! F9 m. l; Z
Bit rate                                 : 14.8 Mb/s
' e; G: X' W' r8 Z6 ANominal bit rate                         : 16.0 Mb/s
$ ~9 I# R( ?( t% ~0 mWidth                                    : 1 920 pixels
) f4 [) d# B3 `% r  bHeight                                   : 1 080 pixels
( n6 f4 G5 Q6 i" ZDisplay aspect ratio                     : 16:9
& N6 s: g- Y4 W, G! n! p5 nFrame rate mode                          : Constant2 v9 d2 K* J9 k; g1 s; ]' ?
Frame rate                               : 23.976 (24000/1001/189150) FPS, s9 Q( z* L1 _. g" ?& T
Color space                              : YUV9 Z& R, q8 Z. Z. z% J6 A
Chroma subsampling                       : 4:2:0
" f  e0 v2 u& F1 lBit depth                                : 8 bits( v9 v0 {. Q6 K0 `; B; G: @) p
Scan type                                : Progressive
5 ~' r* b) ^) n% O: ]Bits/(Pixel*Frame)                       : 0.298
$ s4 P3 B2 y' }/ ^8 jStream size                              : 12.3 GiB (66%)$ |8 Y9 z% D( N2 v* o
Writing library                          : x264 core 148
- ]  A9 M( S1 c% \& K9 pEncoding settings                        : cabac=1 / ref=1 / deblock=1:-1:-1 / analyse=0x3:0 / me=hex / subme=5 / psy=0 / mixed_ref=0 / me_range=16 / chroma_me=1 / trellis=0 / 8x8dct=1 / cqm=0 / deadzone=21,11 / fast_pskip=0 / chroma_qp_offset=0 / threads=48 / lookahead_threads=8 / sliced_threads=0 / nr=0 / decimate=1 / interlaced=0 / bluray_compat=0 / constrained_intra=0 / bframes=2 / b_pyramid=0 / b_adapt=1 / b_bias=0 / direct=1 / weightb=0 / open_gop=0 / weightp=0 / keyint=24 / keyint_min=13 / scenecut=40 / intra_refresh=0 / rc_lookahead=24 / rc=cbr / mbtree=0 / bitrate=16000 / ratetol=1.0 / qcomp=0.60 / qpmin=0 / qpmax=69 / qpstep=4 / vbv_maxrate=16000 / vbv_bufsize=16000 / nal_hrd=none / filler=0 / ip_ratio=1.40 / pb_ratio=1.30 / aq=1:1.00% r9 ^& v) m6 v, V! N
Default                                  : Yes# R. |' T; z8 ^3 Q1 B
Forced                                   : No
9 L- s' E. j" U7 H/ W1 mColor range                              : Limited! s1 E2 x  m( ^- `8 I
Color primaries                          : BT.709
& K/ k8 _8 K- U& R8 jTransfer characteristics                 : BT.7094 j; g/ }8 |2 w) w2 K5 ?$ Q' [4 B* r
Matrix coefficients                      : BT.709
  u5 [! D4 T: n5 @! L, ?8 MAudio #1# @" v# w" [3 j- I+ U9 k4 y
ID                                       : 2- Y1 |3 [9 ^8 `* h, \- N
Format                                   : MLP FBA 16-ch
/ Y" T9 n. ^# j2 X# }Format/Info                              : Meridian Lossless Packing FBA with 16-channel presentation
" e) p  W. [7 h( wCommercial name                          : Dolby TrueHD with Dolby Atmos
- p4 X: t4 u- Z3 V, c( h/ T- dCodec ID                                 : A_TRUEHD
  N0 @2 Z: H* v  z$ o: p/ eDuration                                 : 1 h 58 min
# G; c- b! j8 F2 r( ^Bit rate mode                            : Variable$ T( E) C2 y. a  w
Bit rate                                 : 4 691 kb/s
" i3 H9 H- M' c1 {+ x3 F+ J# dMaximum bit rate                         : 8 409 kb/s
' F: {2 k0 k. DChannel(s)                               : 8 channels6 h$ }* _$ A7 q
Channel layout                           : L R C LFE Ls Rs Lb Rb
( F; D4 |+ t1 z) Z& I) vSampling rate                            : 48.0 kHz
- X/ P6 U* N' J; B2 h$ fFrame rate                               : 1 200.000 FPS (40 SPF)( ~# q8 [8 M1 C& K9 A
Compression mode                         : Lossless8 R) K/ \8 J2 N  a  v, f
Stream size                              : 3.89 GiB (21%)
2 {; u- L, x' B( YTitle                                    : TrueHD 7.1 Atmos3 N! v5 }( ~# R' A& {0 \- F
Language                                 : English2 Z; {5 K' ^8 x- O$ U5 d9 p. V
Default                                  : Yes
& p3 Y1 j% ]; r5 IForced                                   : No/ S" j, S! `0 M# Z. t) J! V
Number of dynamic objects                : 131 y! b' E2 [/ `! S. j. K8 I4 s
Bed channel count                        : 1 channel5 i" Z& Q* H/ c9 p1 k6 y" m$ ^
Bed channel configuration                : LFE
( U! c" o# \0 S  OAudio #2
4 S# ^. v/ X3 u4 |ID                                       : 3! h7 H! K1 G2 G* e
Format                                   : AC-30 i* H9 v. W) I6 ?" y
Format/Info                              : Audio Coding 3' W) I5 {, Y5 j  _  }
Commercial name                          : Dolby Digital
6 N; E, O* k+ N2 B( q- N' I6 UCodec ID                                 : A_AC3
  a  t1 d7 @; t0 CDuration                                 : 1 h 58 min7 [/ i6 J: L6 s- d8 U8 V, e
Bit rate mode                            : Constant
# Z, u1 W2 G) f9 D+ ^) I, J$ UBit rate                                 : 640 kb/s: W5 {1 O/ a, w, y" P* B
Channel(s)                               : 6 channels
: E" W! [  ^& V5 b, sChannel layout                           : L R C LFE Ls Rs
2 L1 W6 i  ?$ k4 \Sampling rate                            : 48.0 kHz: ^- V" c9 F5 P1 E
Frame rate                               : 31.250 FPS (1536 SPF)
4 ^4 W$ {5 L. X& dCompression mode                         : Lossy" M4 [7 p+ V+ Q, @( e5 ?* h
Stream size                              : 544 MiB (3%)
+ o( Y4 ~* H  dTitle                                    : DD 5.1; D* ^  f$ N: c3 I5 i% w
Language                                 : English
+ E- }7 E" c4 R, r/ fService kind                             : Complete Main
+ c7 \4 c6 q0 j0 BDefault                                  : No
0 W. I; I1 e- Q0 mForced                                   : No
. I/ s0 T5 s, m- ]( |6 u0 gAudio #38 W1 p+ [' @- |: ?/ P/ m) [3 _
ID                                       : 49 j6 S* ^2 Q* b: {8 T# @
Format                                   : AC-3
" E' j- f: V# r/ @5 l4 `Format/Info                              : Audio Coding 3
* V; ]# u9 N4 m1 c' mCommercial name                          : Dolby Digital, c4 M9 M' n, }: f2 l$ ^5 B
Codec ID                                 : A_AC3
- v5 n* w  o: ]7 m! s+ ]Duration                                 : 1 h 58 min
  W8 B6 Q) x& mBit rate mode                            : Constant% O, f) x% [# J
Bit rate                                 : 192 kb/s( h: v% I% x  W2 Z+ h! J' q
Channel(s)                               : 2 channels) z" l7 w% W0 A
Channel layout                           : L R
$ Y  n0 n$ K. v1 R  w. vSampling rate                            : 48.0 kHz
4 O) ^( _) t# V' HFrame rate                               : 31.250 FPS (1536 SPF)0 k0 m( ^8 T  M' T% r* q7 o% s
Compression mode                         : Lossy
6 s; _  s% S" X' n8 k$ U* hStream size                              : 163 MiB (1%)
5 i8 H  E0 Z( O% _Title                                    : Commentary by writer/director Taika Waititi
# y1 n# q. w) a$ dLanguage                                 : English6 s; x+ q& J+ F- {$ O, M/ D
Service kind                             : Complete Main
, Y1 X* M0 \) fDefault                                  : Yes" L- a; r8 L& S7 A1 L# w
Forced                                   : No& o/ ?* }" ~0 u" [* ]
Audio #4
' Z' F, p& S- W. l8 X2 zID                                       : 5
. u3 s) W9 B  \Format                                   : DTS XBR
# Z' Z8 J9 k7 @; W; K" JFormat/Info                              : Digital Theater Systems
+ D2 w/ f0 N8 @Commercial name                          : DTS-HD High Resolution Audio
' z4 K: o1 T8 Q5 r; @* rCodec ID                                 : A_DTS
# r. E: T( u8 E7 s3 a# ODuration                                 : 1 h 58 min& t# q7 C* g. i
Bit rate mode                            : Constant
, a+ i3 Q2 V2 }' ~Bit rate                                 : 2 046 kb/s, Y- N# w3 S0 E' i6 V
Channel(s)                               : 8 channels
- _2 o4 B# X; }8 ~Channel layout                           : C L R LFE Lb Rb Lss Rss
3 e8 z. R) C; e  y8 w( e, i" ySampling rate                            : 48.0 kHz1 S# |7 G# `+ \
Frame rate                               : 93.750 FPS (512 SPF)) M; Z1 O# g' K" j/ B; k
Bit depth                                : 24 bits
& V. p2 `) p; F3 H2 vCompression mode                         : Lossy" I5 ^/ m9 @6 c2 L
Stream size                              : 1.70 GiB (9%)! H1 ~. [0 S% a$ d
Language                                 : Japanese
" p7 a% V2 b" @. K% CDefault                                  : No
- A9 K) Y# T: uForced                                   : No( U5 W4 w+ E. U" o8 K6 ^
Text #15 {7 b4 ~: H% I* T
ID                                       : 61 r( ~- @2 j5 o( [: Q- S
Format                                   : PGS- w5 A1 \+ u3 V
Muxing mode                              : zlib
5 F2 @- j. P/ j5 Z8 dCodec ID                                 : S_HDMV/PGS
6 t8 h) ~% C) y+ W  N1 a, q, sCodec ID/Info                            : Picture based subtitle format used on BDs/HD-DVDs
5 C9 K- m1 m$ @% [Duration                                 : 1 h 57 min( l' S* g" v/ t; ]+ R+ Z
Bit rate                                 : 45.1 kb/s
/ l- c4 A1 B: i5 d' {* JFrame rate                               : 0.459 FPS0 A5 p2 r$ I* E" U* b) g
Count of elements                        : 32443 R* m/ L+ Z. h
Stream size                              : 38.0 MiB (0%)3 v$ w4 c# R4 c" \
Language                                 : English: h! D2 w7 h- K
Default                                  : Yes
2 _; I5 Q9 h0 E3 jForced                                   : No1 H5 S$ z, l9 Z
Text #2! W; m+ s. V- M/ x  T* r- U# E
ID                                       : 7
1 d$ f3 A/ B7 `7 DFormat                                   : UTF-8
* F7 f. |9 i; Z0 l) j. |8 VCodec ID                                 : S_TEXT/UTF84 B( a4 }1 v  i- O1 L2 {
Codec ID/Info                            : UTF-8 Plain Text
. k' y7 i8 s7 \5 r7 q1 \Duration                                 : 1 h 57 min
2 _- K2 b5 K5 M' k5 m" {% f  pBit rate                                 : 56 b/s' {  ^5 Y# M# @# u# C1 N& f1 Q
Frame rate                               : 0.252 FPS
  {( t" B( K  wCount of elements                        : 1782
4 y0 x1 |. Q) d* p' [Stream size                              : 48.8 KiB (0%)4 |3 Q, S4 }/ ~6 y; I
Language                                 : English
4 b: E! w" E* qDefault                                  : No+ o" c2 |* ~5 k, V. X1 I6 n( ?6 ?
Forced                                   : No
# a( X! O/ m' R5 q* zText #3. H. [/ s; O9 C* M8 }3 m& s$ H% |$ J
ID                                       : 8
5 y5 a1 c6 S$ n% e7 w8 D% oFormat                                   : UTF-8
/ y  I7 f& w2 L% c" i% F9 o- RCodec ID                                 : S_TEXT/UTF8
' K, T  n5 b8 ~, h% P( {Codec ID/Info                            : UTF-8 Plain Text
6 ^. O5 q2 L% fDuration                                 : 1 h 58 min
3 o/ K0 i+ o3 c3 T% ~( ^; j2 |Bit rate                                 : 69 b/s! f! r$ y/ f4 e& g( U* X) f
Frame rate                               : 0.319 FPS
: E# z# D3 @3 |8 `0 T9 FCount of elements                        : 2262
6 H2 u  W7 Q, D& ^1 eStream size                              : 60.2 KiB (0%)
$ N" Z. C7 q  E6 R& w5 S6 PTitle                                    : SDH
, j' F* d- L$ z4 I. j2 ^Language                                 : English
6 O# s3 Z' G0 b# n: b1 N. S) CDefault                                  : No
% j( ?6 a' D4 B( q' DForced                                   : No, ~6 W1 L$ |9 K$ G: _
Text #47 [/ S) \* z2 f) I) v$ _  M
ID                                       : 9
6 Z3 X- n! u; l  V, yFormat                                   : UTF-8
8 U3 Q, \; r. Y3 rCodec ID                                 : S_TEXT/UTF8
4 e' `" [3 C& ]/ A4 ACodec ID/Info                            : UTF-8 Plain Text; c' M0 M; `; b; z/ x9 Q% s8 A
Duration                                 : 1 h 57 min
3 ?6 @0 ]6 s  }" E, PBit rate                                 : 48 b/s
3 H8 V4 a. h  f4 C: W. [Frame rate                               : 0.227 FPS
/ j+ Y) T3 A' X3 B0 f2 z) _/ `( g0 OCount of elements                        : 1607
6 U: |1 Z+ k3 B% m  E1 z% |. d3 YStream size                              : 41.8 KiB (0%); {( p5 b. X; R
Language                                 : Czech1 p$ l6 D/ o. c* C+ q/ V
Default                                  : No: t# c8 H, T2 o% Y6 p8 _
Forced                                   : No* Z$ I6 [( T, G5 d; @( T
Text #5
2 F; y3 ?3 ^1 E- s' u; T6 rID                                       : 105 D9 x5 x+ b% F0 b0 D3 V: t# a- T
Format                                   : UTF-87 w8 }5 h5 @2 k# p: d9 K
Codec ID                                 : S_TEXT/UTF8
% U% k9 z) s2 lCodec ID/Info                            : UTF-8 Plain Text/ I% r( B( [7 T$ c& ^
Duration                                 : 1 h 57 min
$ a; Q6 c, f* G& L$ vBit rate                                 : 44 b/s
/ G2 P: }) K3 X5 Y# {9 H3 W( rFrame rate                               : 0.140 FPS
4 }0 E: _. [7 i- z) p2 PCount of elements                        : 9908 R4 ?- F; @) \  \! e
Stream size                              : 38.4 KiB (0%)
, H: e0 L# p% @- QLanguage                                 : Danish0 {2 @+ u- Y6 u8 G7 o3 @' U
Default                                  : No
) P! X. }3 O8 R9 |1 q7 cForced                                   : No
, ?  R. ^1 o, w7 `1 h6 D! `Text #6& f8 l" r0 Q, c* B. Q
ID                                       : 11
+ ]; M9 X2 T. x3 S* Z" YFormat                                   : UTF-8# z9 |, \0 U; G) }2 Z4 O- N
Codec ID                                 : S_TEXT/UTF8, m  g& Y+ p+ J/ ~7 v7 G) [0 |/ x
Codec ID/Info                            : UTF-8 Plain Text) Q6 [% X8 F! l. R5 {
Duration                                 : 1 h 57 min
) y7 v' o- `4 _6 {/ fBit rate                                 : 50 b/s
5 t- I, W) `  FFrame rate                               : 0.196 FPS" E2 \6 I) ?5 J* D' A$ V( Z
Count of elements                        : 1388
# ~1 r# a; T! TStream size                              : 43.4 KiB (0%)
, H: ?6 p% e1 [# _5 Q7 b3 U7 ILanguage                                 : Dutch# V+ \  i3 _8 Y
Default                                  : No
( J8 j# D1 d! _  a$ x- TForced                                   : No1 y4 L) d" `, @8 G
Text #7
$ K/ l6 q$ `1 {% R" ZID                                       : 12, N% @. v. E# r7 k& b; Y8 X
Format                                   : UTF-8
" [8 K1 v1 |  s. q/ bCodec ID                                 : S_TEXT/UTF8, Q& n9 L; u/ E% I
Codec ID/Info                            : UTF-8 Plain Text
- Q5 W0 ~0 m1 h2 lDuration                                 : 1 h 57 min
- J9 T1 _; e2 yBit rate                                 : 55 b/s
  Q" H  _; q; @9 p$ t1 T$ J& vFrame rate                               : 0.227 FPS
4 Y* h. ^- u/ ]7 d9 Y1 r  R  iCount of elements                        : 1606
/ ]7 P. {0 [# E! u5 l* dStream size                              : 47.6 KiB (0%)' b! P% a& y' i* j1 D  H1 Y
Language                                 : Finnish
1 u0 Q0 N/ B9 M. {" G( _8 S7 m5 pDefault                                  : No# v, r+ v+ T& |8 n
Forced                                   : No
% D$ s; W7 [) q  K& cText #8
; O& J2 S" d" A2 o5 a& v0 nID                                       : 13
) g/ c7 {& t4 s+ B+ WFormat                                   : UTF-89 k' N5 B: |, i3 [- v" w" R/ O
Codec ID                                 : S_TEXT/UTF8
4 f* d* ?+ {3 i0 e, bCodec ID/Info                            : UTF-8 Plain Text; p2 ?+ N1 n+ R' }: B1 g) p' a
Duration                                 : 1 h 57 min2 C* m* E/ H! C5 @5 K! r
Bit rate                                 : 45 b/s
- [; `! t' Y7 m7 J" jFrame rate                               : 0.213 FPS" x/ m) X/ H( g; V) p
Count of elements                        : 1504
* R+ A" ~- Y; w# L, uStream size                              : 39.0 KiB (0%)
0 _* f% \( a& ~Language                                 : French3 _: _$ ~0 ^" {! f$ Y1 `1 O' u
Default                                  : No% ~3 s1 a4 ~5 O, z+ ]: F
Forced                                   : No
8 u9 n0 d( r7 ~! UText #9" e6 j- k' l) p- i
ID                                       : 14- J2 `: b- b' L- q7 s$ ]8 U7 m9 ]
Format                                   : UTF-8
- C0 m; S8 A* u! X1 `3 gCodec ID                                 : S_TEXT/UTF85 z( s% s8 l6 A6 I! i8 t' z1 t
Codec ID/Info                            : UTF-8 Plain Text4 P6 o0 b* l5 Y" f1 `8 Q
Duration                                 : 1 h 57 min
) f# t' m$ G4 O* \$ ZBit rate                                 : 46 b/s
) {3 v( i3 i* ?2 yFrame rate                               : 0.208 FPS
. M! V" @4 a" O5 r  P3 }. O& mCount of elements                        : 1472
' S6 L; O& e5 `+ B2 dStream size                              : 40.5 KiB (0%)8 Y8 X( k9 s& M1 F# D
Language                                 : German
* b* {# ^* Z! e' E8 `Default                                  : No
2 |8 h# T- {4 h2 T. d2 XForced                                   : No
9 ~4 `0 |' B- c' T! Z/ {Text #10( K! i9 R  d7 d
ID                                       : 15- p- U' l* w2 ~9 H. g9 I
Format                                   : UTF-8
7 r( ?# l& A7 NCodec ID                                 : S_TEXT/UTF8% O- B) ]% ]' @: \
Codec ID/Info                            : UTF-8 Plain Text+ ^( T5 b: q/ [3 M: O; `
Duration                                 : 1 h 57 min
, \* z, Z' h( R. C! @' lBit rate                                 : 88 b/s
4 M/ f) O) }8 D" I+ n$ sFrame rate                               : 0.227 FPS0 U1 {) g9 \' Q9 l: Y9 u
Count of elements                        : 1602
- I# h; I, h* i( v" z& ~+ E- {$ AStream size                              : 76.7 KiB (0%)4 H1 W  p! J* H/ T  k
Language                                 : Greek
- D; g- z0 R: }* r- g; O. U; cDefault                                  : No9 x0 i( Y; [9 ?  L( \
Forced                                   : No4 d4 l, u: }( Z4 H/ F
Text #110 @# E  X! T( x! a2 E- e( m
ID                                       : 167 L  r# t& h5 |2 Y; O# }4 w5 [
Format                                   : UTF-8
& x1 b! e( {: X* r; [Codec ID                                 : S_TEXT/UTF8
, m5 V: y0 u7 _2 l" o: ^Codec ID/Info                            : UTF-8 Plain Text
) K6 y7 B3 R/ G# wDuration                                 : 1 h 57 min) M6 w) e/ ~; B% Y; q8 L; q
Bit rate                                 : 46 b/s
; k4 Z$ z! n$ Y6 q/ J$ UFrame rate                               : 0.228 FPS$ h; H- T; `7 V+ A# E( q
Count of elements                        : 1611
  i9 E# R. K9 {4 v3 j( z& ]Stream size                              : 40.5 KiB (0%)
  I+ p! i' I& K; _4 SLanguage                                 : Hungarian: Z, F2 q& n8 Z2 b. v' s& |
Default                                  : No" a6 N) ]% }0 r
Forced                                   : No
* }6 `9 j3 F+ l, i6 C' z9 BText #125 [: C. q7 z1 ^. o# J
ID                                       : 17
# r1 L! l; D) y" F* T( KFormat                                   : UTF-8/ r6 q! ?+ C" p+ {- ]7 ^
Codec ID                                 : S_TEXT/UTF8
2 p6 R# E* b7 X& ZCodec ID/Info                            : UTF-8 Plain Text
3 E; |6 c% j% K; O/ UDuration                                 : 1 h 57 min" e" k' k: ~/ q0 H" z  ^
Bit rate                                 : 51 b/s
7 O5 v, `8 p. J" u! R' e/ o8 ~( QFrame rate                               : 0.226 FPS
( J7 O8 N) N; `* Y6 ACount of elements                        : 16012 W- R8 d5 e) w6 z8 A/ ]  @' d
Stream size                              : 44.7 KiB (0%)
4 i1 R7 f9 u7 y0 S% nLanguage                                 : Icelandic& f8 Q3 ]. ~" s3 T8 O: j7 J+ \3 p
Default                                  : No
+ Q- I4 l/ \: U3 B; x& n& jForced                                   : No6 l3 R; X% E! i( @" g( k, X& k
Text #13
4 P" I- A& L4 u8 U: y. P$ QID                                       : 18
' N8 l2 U9 u* NFormat                                   : UTF-8
4 P# C9 J, p2 V& A! rCodec ID                                 : S_TEXT/UTF8
+ T) P: |/ Y5 |' ?3 uCodec ID/Info                            : UTF-8 Plain Text( T8 q( m7 F, L# S, b/ h
Duration                                 : 1 h 57 min
0 x2 ]. c" m4 c1 K8 t, wBit rate                                 : 56 b/s. H0 ^; }. h2 v6 h9 ^( E
Frame rate                               : 0.227 FPS- I. q% C, o  R& ~7 P
Count of elements                        : 16077 ?4 M) {/ w/ e4 m! q
Stream size                              : 48.8 KiB (0%)
0 e$ L4 X4 `( `+ [2 M) jLanguage                                 : Italian
# N% Q6 w, y% n* s) ODefault                                  : No
2 Q8 B1 @! ]# [/ V$ ?% T2 B9 oForced                                   : No
$ p" c( p: D; DText #14" ^, L7 o- g# r  Y6 [- m0 r
ID                                       : 19. ]7 b. Y2 p- k7 Y! n) {
Format                                   : UTF-8; G& l7 l+ X: }3 g
Codec ID                                 : S_TEXT/UTF8) z: P# M' n- K) t8 ~6 j+ g6 C9 b3 [
Codec ID/Info                            : UTF-8 Plain Text
$ Z( E- F4 Q* c( {* j  E% A2 cDuration                                 : 1 h 57 min9 ^, F; P. P6 `: o/ x
Bit rate                                 : 47 b/s! F% k1 u# l" ~( ]- Z$ w' H
Frame rate                               : 0.228 FPS% j3 ?7 g4 |! T, h9 [( v+ g
Count of elements                        : 16122 ^; \0 @7 X' w6 V2 x9 F
Stream size                              : 41.3 KiB (0%)
1 s) a9 W8 N# U7 c. hLanguage                                 : Norwegian
3 N5 m6 [" G6 zDefault                                  : No
% B5 ~; ~  `6 X8 iForced                                   : No1 v+ i9 N- W2 G9 _  U# F
Text #15# x0 h4 j( C% ], |  Z/ h7 v$ k+ K
ID                                       : 203 p& s7 ^8 [  [  H) s
Format                                   : UTF-8! P* E, Q$ M0 e
Codec ID                                 : S_TEXT/UTF8
& y2 W  E$ G+ f: F$ X: g- P9 xCodec ID/Info                            : UTF-8 Plain Text
7 @- L, D" i5 b- J4 pDuration                                 : 1 h 57 min
% c6 X: K5 }; C/ y$ cBit rate                                 : 42 b/s
  ~0 l" A0 l0 W5 `* L" P& [+ eFrame rate                               : 0.228 FPS
+ H6 w% W; v) {Count of elements                        : 1610+ \# s& y. y7 I
Stream size                              : 37.0 KiB (0%)
6 i2 y; s8 ~$ }& k: yLanguage                                 : Polish
" i' H  n4 M( _0 j+ }6 {Default                                  : No( y# V+ r0 Y4 r& u1 P& o4 |
Forced                                   : No
+ G# r) M3 y: l3 eText #168 F. f6 d. S( ]  b. J6 E4 c
ID                                       : 21
6 h8 J9 O6 E1 ?0 Q0 q( H% QFormat                                   : UTF-8$ n1 p% W! T3 A3 I
Codec ID                                 : S_TEXT/UTF8
: D& t! K  G' r' _Codec ID/Info                            : UTF-8 Plain Text# F* P( p, D: y( K4 U1 G
Duration                                 : 1 h 58 min1 V3 L9 M& u6 G
Bit rate                                 : 52 b/s/ ?- s9 v" U9 A
Frame rate                               : 0.221 FPS: o) n0 e$ }& a: f( o/ u6 x
Count of elements                        : 1573, C& h% [  i$ _3 C6 V& D
Stream size                              : 45.8 KiB (0%)
( [* ^: f; \) D! C! _5 VLanguage                                 : Portuguese
7 _  S$ m/ M+ L3 X* NDefault                                  : No6 G# Q, }( O5 f, W1 v
Forced                                   : No1 \+ }! w) j  m8 k$ j- c! D: z) v
Text #17
- h9 q8 X* s! G/ ^ID                                       : 22$ ~- v: s( u- z" B9 G7 l  T3 h2 \' \
Format                                   : UTF-8) W* Z7 K* `$ ^5 Z
Codec ID                                 : S_TEXT/UTF84 E1 ^3 F& }# i
Codec ID/Info                            : UTF-8 Plain Text  \' F0 x- y3 I0 U5 F/ k
Duration                                 : 1 h 57 min( B: k- C( j) @. o+ R" ~
Bit rate                                 : 55 b/s
* m, K+ n1 E2 s3 GFrame rate                               : 0.211 FPS
. R% c  K  R: L9 I- a* HCount of elements                        : 1492( p! J- @+ z) r
Stream size                              : 47.6 KiB (0%)/ c" z1 o5 e4 p
Language                                 : Romanian# V  F0 W+ ]* S, l% a
Default                                  : No
* Q4 }7 _2 D  Y# _4 |Forced                                   : No
" F  N' H6 T' zText #18+ k% I' U9 Q, W/ u% y  B* ]4 }4 n1 m: [
ID                                       : 23& ?# D5 Q& M: V' S
Format                                   : UTF-84 W' w- w/ \+ }# A9 W' _8 {0 p
Codec ID                                 : S_TEXT/UTF8' Q. ]5 L8 j  a& b0 n# l
Codec ID/Info                            : UTF-8 Plain Text
8 e0 D* P9 V. h% m+ SDuration                                 : 1 h 57 min
6 V. u7 E1 W; ~$ P  Y& QBit rate                                 : 46 b/s, Y# |$ n0 ?. o4 _* @; T
Frame rate                               : 0.228 FPS
, s" X- F5 ]6 }$ a* H! {) X5 n1 XCount of elements                        : 1612
" ~; I, {" s' `! I3 d/ ^Stream size                              : 39.8 KiB (0%), L# _/ T6 G' @7 u' h6 y: y
Language                                 : Slovak$ m" q% z. w/ Z$ W% I
Default                                  : No' |3 }! T1 @/ J: f
Forced                                   : No% k+ l2 ~: K  k4 R& [
Text #193 f; y9 y/ t  g) K
ID                                       : 24
; W* U# h" a3 x& u+ kFormat                                   : UTF-8
, R1 R* _" p  k$ F' {$ sCodec ID                                 : S_TEXT/UTF86 F' c1 E% z) `, d
Codec ID/Info                            : UTF-8 Plain Text& c! _3 d) J  M+ w! D" f
Duration                                 : 1 h 57 min
' W3 Y7 L- u, {: \$ T) Y4 H2 B) hBit rate                                 : 49 b/s, g2 \8 v6 l/ L: K) }5 ~
Frame rate                               : 0.227 FPS" ^: H2 D% Y# W$ d# b4 U
Count of elements                        : 1603
, T  ^( v& a: x" v" n, y4 J, M; uStream size                              : 42.7 KiB (0%)/ z5 o: l- H- i) i
Language                                 : Spanish/ d# n9 H2 [1 _
Default                                  : No$ E: x( v1 e0 X2 H' S. _
Forced                                   : No8 \% C- F- Z; N# [6 O# z/ T
Text #20
, Z" ~8 n$ ]) V/ K7 H! DID                                       : 25
; x0 ~' o0 Q2 {, AFormat                                   : UTF-8+ X" Y# W- X/ }5 ~9 a* ^- h
Codec ID                                 : S_TEXT/UTF8" h& Y' y8 V0 b  d2 d% G
Codec ID/Info                            : UTF-8 Plain Text0 U/ B# a; J& A! j
Duration                                 : 1 h 57 min
# s' N2 m5 @) I/ \Bit rate                                 : 47 b/s$ m1 v6 ?2 u( X( y. X) J
Frame rate                               : 0.165 FPS
) I& J8 u# i/ X5 Z9 D: `Count of elements                        : 1166
; @( W- j; C  B& OStream size                              : 41.1 KiB (0%)8 K" q. \; S4 b4 V
Language                                 : Swedish/ ]8 F: P9 p2 c: B$ m: ~# K$ P  \
Default                                  : No
' H, _( n, Z3 z& @3 n( [! g: AForced                                   : No) X; `9 G) R3 n
Text #21( @+ j* b4 R8 I4 b. |8 h' ]3 l
ID                                       : 26  d. a4 d; `+ Z1 i1 E
Format                                   : UTF-8
  ^5 w4 j# G# m( y( p0 S3 C) zCodec ID                                 : S_TEXT/UTF80 `' z* U1 ?2 f* @* O& c$ v9 b1 q
Codec ID/Info                            : UTF-8 Plain Text! F; [" j  t8 e# _6 r* v
Duration                                 : 1 h 57 min
1 O* Y7 Z+ D# dBit rate                                 : 53 b/s
' f! _' I6 w) U" @! ^  z: \) |Frame rate                               : 0.228 FPS
1 U, j! h% b1 x8 iCount of elements                        : 1609) b2 s: l- e$ i5 v
Stream size                              : 46.1 KiB (0%): z4 y5 b8 y$ g3 ^7 Q' b
Language                                 : Turkish+ |+ H) t" E$ N% ^* Q0 L
Default                                  : No) [. r' p- b6 t
Forced                                   : No/ ?1 E9 l) }5 ^& ^
Text #22. L2 [( _- O5 N! O1 Z6 r! v/ v9 |
ID                                       : 27
% k7 l7 j6 W, |1 M5 r2 TFormat                                   : PGS
8 S" o% X1 H' V$ p, ?9 r1 v& {3 N, QMuxing mode                              : zlib
9 y# [3 @4 e" F6 M! D2 {Codec ID                                 : S_HDMV/PGS, o; D* @) h9 {( L4 Y; T6 B+ B
Codec ID/Info                            : Picture based subtitle format used on BDs/HD-DVDs
- q3 X0 E. N* Z/ m& w" a: R. cDuration                                 : 1 h 58 min2 ~; Y* y- |# N, D+ B
Bit rate                                 : 52.5 kb/s
2 q% r; t+ P! V: U$ z) D9 ?8 p( ?Frame rate                               : 0.641 FPS6 H" b- i" l9 `- X; B' Z8 h5 ]$ F
Count of elements                        : 4548
' G0 T- x' b! F- k: S' }8 zStream size                              : 44.4 MiB (0%)7 O/ ]8 P$ D; L) ~& u! E( W6 L# N& Y
Title                                    : SDH! o2 B) i3 H; I4 z
Language                                 : English
  q$ B  s% |8 d( W" P/ q1 `  }. `Default                                  : No" o7 Q) c9 h: M; W  K
Forced                                   : No
9 m' [/ {) l0 d0 z5 J% QText #23
  _) z+ \* M9 }. }9 [ID                                       : 28
: s8 s/ r6 j+ ~# F. }Format                                   : PGS8 e" R: I; v7 U( X+ p7 b( G
Muxing mode                              : zlib
. W2 E$ I9 o/ N' z8 K; U. z' wCodec ID                                 : S_HDMV/PGS, e5 Y' ?& x! ^
Codec ID/Info                            : Picture based subtitle format used on BDs/HD-DVDs
* F* t7 D5 x, M, E7 H% J; W- k* [Duration                                 : 1 h 57 min
6 A' z: N+ X; Q0 oBit rate                                 : 27.2 kb/s9 X0 [- E# v; S/ w& R$ z6 T( g
Frame rate                               : 0.280 FPS
7 F, d" l9 s; r6 Z/ @Count of elements                        : 1980, L$ ^5 F6 V" P! Y3 j7 O! N
Stream size                              : 22.9 MiB (0%)
$ ^8 P: y: w: y0 w6 d3 X: LLanguage                                 : Danish
) y( R: Y; z1 j) @4 {' s/ \( i; x( DDefault                                  : No  ^9 n" T+ M7 {$ g" W* J
Forced                                   : No6 u) @8 K0 l( s! A; I. p
Text #243 m' }8 e  k4 W. f- [  D
ID                                       : 29
. a' K1 g2 S  P, x4 _# XFormat                                   : PGS, T8 b' h" k9 O2 Y; ]1 J4 S& P
Muxing mode                              : zlib: N0 f# x* l& a+ ]2 Z
Codec ID                                 : S_HDMV/PGS
: y0 N4 R- }+ `* ACodec ID/Info                            : Picture based subtitle format used on BDs/HD-DVDs5 H2 @2 y: A: U* y  u8 B% B
Duration                                 : 1 h 57 min5 O9 l8 T$ H/ D% D- ]
Bit rate                                 : 31.6 kb/s* w8 _! P+ Z& }0 T; W2 ~: p
Frame rate                               : 0.392 FPS
7 {# }$ _- Z" @- U- e, ICount of elements                        : 2772
3 x% J% n6 E1 I( o- u/ _Stream size                              : 26.6 MiB (0%)
5 j  e2 B, i& ^4 m. G" KLanguage                                 : Dutch
- O- p% h( a9 P+ e* D$ \. {Default                                  : No
- J- B' V! s' l2 \0 l# YForced                                   : No" S; x2 B  U' m" q. k
Text #25  W/ `6 l5 F6 q: s* r  Z7 [- U" A/ P
ID                                       : 30
( X6 d. O+ k1 N& n2 `0 y8 ^Format                                   : PGS' u+ k  L+ w- C& x- j+ h
Muxing mode                              : zlib- k- ?+ Z9 n: I3 W4 Z5 f9 |
Codec ID                                 : S_HDMV/PGS9 y' ~" y- }' ^  d
Codec ID/Info                            : Picture based subtitle format used on BDs/HD-DVDs
' g! c4 ~% m+ H, @% Q) ^9 S) BDuration                                 : 1 h 57 min
* r  n: V0 W% z% r9 WBit rate                                 : 35.0 kb/s' |4 ^! E/ M( i7 h% `
Frame rate                               : 0.453 FPS
/ F/ w/ X& E4 y2 d5 a9 _Count of elements                        : 3206
1 R5 |+ T. m0 @: n  C7 M- d! PStream size                              : 29.5 MiB (0%)$ \6 {. W4 z9 o% @, \9 [  q
Language                                 : Finnish% O' T7 |; q3 O! g
Default                                  : No. D9 ~! L3 J) g+ x  t; v
Forced                                   : No
3 D+ O. I6 D8 t- W- n6 y6 ~Text #26
  n- _' }7 ]7 [0 e: VID                                       : 310 V/ d7 r3 [. l1 f% Z; Z% E
Format                                   : PGS; h7 O/ D0 c8 b' `7 G% j9 q
Muxing mode                              : zlib
: H! p8 l, X+ l3 [1 M9 G3 S* OCodec ID                                 : S_HDMV/PGS
" F2 n1 V# i3 v* cCodec ID/Info                            : Picture based subtitle format used on BDs/HD-DVDs: S* ~* K/ |( w1 ?3 V' Q' F, q
Duration                                 : 1 h 57 min
; o% p' _' i. T/ k+ G* {# [2 ZBit rate                                 : 27.5 kb/s% C( o, \8 }! s5 r) x2 P6 J
Frame rate                               : 0.425 FPS
$ Q. c; S' i+ r$ u. v$ _" kCount of elements                        : 3006
3 \, {  r; X# ~  P) |Stream size                              : 23.2 MiB (0%)2 _6 ]) o+ z" p  I
Title                                    : Parisian
! i% g2 E1 q0 ^% ULanguage                                 : French
. Q1 p/ ]& u2 I( e5 L1 h" @$ QDefault                                  : No
4 P* o6 y* S3 x. R! z# ~2 N: ~Forced                                   : No/ o. ~; U, n( _  }% O( D0 E
Text #279 [  O' G- c1 J) s1 h' n( x
ID                                       : 329 q+ S& ]0 h. y' l5 P
Format                                   : PGS
; H# H7 V: b* J, F4 VMuxing mode                              : zlib5 h! s: ~6 W3 k# s5 w- t: M& p6 `
Codec ID                                 : S_HDMV/PGS( F2 F7 F' f% J2 A! U6 F' N: c. d
Codec ID/Info                            : Picture based subtitle format used on BDs/HD-DVDs4 S' H% G' C" x
Duration                                 : 1 h 57 min9 v6 A& _; E) r& o
Bit rate                                 : 38.7 kb/s
% O# s; i9 @+ F  H* F4 SFrame rate                               : 0.462 FPS- @. `, C  J  i
Count of elements                        : 3270- v' ]* H1 I2 @
Stream size                              : 32.6 MiB (0%)
4 _7 M( E9 _9 {( }0 wLanguage                                 : French! z4 ?; L* @6 z8 S. P
Default                                  : No! j1 ~, n$ B6 m" V6 Z% D
Forced                                   : No
1 w0 G- m- j2 b. fText #28% E( }2 `4 w. a" m2 z# E
ID                                       : 33' @2 s2 `/ Y) _! P1 u3 m) w
Format                                   : PGS- t2 m! O) P2 a- F
Muxing mode                              : zlib
$ A" a) R9 ?* U0 a3 SCodec ID                                 : S_HDMV/PGS
" L. U! X( k3 F: ZCodec ID/Info                            : Picture based subtitle format used on BDs/HD-DVDs' w* }; I, P% D" X  b3 v
Duration                                 : 1 h 57 min' r9 n! j1 |% ?! X4 s
Bit rate                                 : 30.5 kb/s
) s2 d0 u( [, w- P) WFrame rate                               : 0.416 FPS
: k$ t. W" |! k5 w* MCount of elements                        : 29401 S  x: L$ H) q3 U9 |* e9 a
Stream size                              : 25.7 MiB (0%)
: d! T/ I/ R7 V( a6 g0 FLanguage                                 : German
+ r, M" G& q8 a+ J" Z& T/ V5 BDefault                                  : No
' n) ?) C7 \$ Y! W5 D5 q+ F* U! xForced                                   : No6 j5 {/ ?. K5 X; E; P$ O
Text #29
5 A( `3 q# y( @* l# YID                                       : 34, O( w3 ^* \4 `) I1 K1 Y  E
Format                                   : PGS
$ k  @9 j2 L/ K+ \5 }Muxing mode                              : zlib
* m- L1 Q% T" {+ sCodec ID                                 : S_HDMV/PGS
0 r6 R4 D/ u5 zCodec ID/Info                            : Picture based subtitle format used on BDs/HD-DVDs
2 F4 x1 R& v' h; c% S! RDuration                                 : 1 h 57 min
4 u4 z9 [+ S4 G, ~% O4 IBit rate                                 : 23.9 kb/s
; z! b5 [3 J6 f4 K* rFrame rate                               : 0.439 FPS
* Y4 q5 n/ \0 p" |Count of elements                        : 3106
/ N+ ~& q9 J3 S! x9 rStream size                              : 20.1 MiB (0%)
4 |% {. {* m" Y0 c3 y' |4 K- tLanguage                                 : Japanese1 A" U, H* _1 t9 a* Y* K, O' h
Default                                  : No& M) v+ E8 y- S; U5 P3 @
Forced                                   : No+ J4 H  \$ y( N
Text #30# `, `. B1 |# x2 t$ V
ID                                       : 35; d, E1 n& `. e4 e) p( D
Format                                   : PGS5 p5 F- B- b* l! v' V  H
Muxing mode                              : zlib: ]9 b* }# D/ E6 R
Codec ID                                 : S_HDMV/PGS
' ]8 K8 |  v1 k5 y$ {5 [' }Codec ID/Info                            : Picture based subtitle format used on BDs/HD-DVDs. j6 H+ H: L, r: _5 k
Duration                                 : 1 h 57 min
' p; D2 G' N( h& \' x5 D- x3 IBit rate                                 : 29.6 kb/s4 A% b% w4 j' X( d4 w8 S
Frame rate                               : 0.455 FPS+ F* G# S, Q, m0 u8 n
Count of elements                        : 32181 |- h6 p0 }& m, P: F8 [
Stream size                              : 25.0 MiB (0%)3 |" O  F  b" B7 O2 Y: X
Language                                 : Norwegian0 Q) r7 }& z: t) U) m0 V* B
Default                                  : No3 W) P) m9 V1 k6 J
Forced                                   : No: V- m: z+ K( ^) I; g3 G
Text #31
0 N: `% k- _6 W+ ?ID                                       : 36
/ s4 }) Y1 N& T' s; k2 WFormat                                   : PGS% U! Z, M4 |* z! t
Muxing mode                              : zlib
. }+ u$ h1 H: H- PCodec ID                                 : S_HDMV/PGS6 v9 q' n, _, _* P
Codec ID/Info                            : Picture based subtitle format used on BDs/HD-DVDs
- x6 x  u$ @6 ]; o( ~Duration                                 : 1 h 57 min9 X6 y. I  |& p9 [! q
Bit rate                                 : 38.1 kb/s" w, R- I6 w6 g0 H! T( I
Frame rate                               : 0.456 FPS
1 w' k% F- D+ Z5 d) qCount of elements                        : 3224" F6 Z% B$ |$ @( y0 R2 D" |
Stream size                              : 32.1 MiB (0%)1 \0 L( a/ u) Y3 [$ I
Title                                    : Latin American
6 ^( w% u/ R* L: tLanguage                                 : Spanish
' K% F# r" E7 j" z$ PDefault                                  : No) ~; A! y4 \! E, c6 x
Forced                                   : No/ |7 ~; w" L+ s0 W6 ^$ K" X
Text #32
( r* Q0 e1 o* B& ZID                                       : 37' s5 Z' |: k5 ^8 H% D
Format                                   : PGS
% e" {: {/ e# P8 H+ h) O* ]+ iMuxing mode                              : zlib' K" |- f' q! q$ {8 {, Y/ h
Codec ID                                 : S_HDMV/PGS
8 ?5 {7 z1 ^2 ~* }3 ?; NCodec ID/Info                            : Picture based subtitle format used on BDs/HD-DVDs
. y3 h1 Y  H/ aDuration                                 : 1 h 57 min
, Y2 `2 c. d3 s$ g" A8 xBit rate                                 : 28.7 kb/s
0 P( \* q4 [, aFrame rate                               : 0.331 FPS, a& o& V) K1 P: D
Count of elements                        : 23388 s0 ?: M$ P# z$ x+ ^: \7 W6 ~
Stream size                              : 24.2 MiB (0%)+ Z2 c2 Q3 S( E; C2 q: p
Language                                 : Swedish) O) y: M9 R# H2 V6 a( w
Default                                  : No2 q9 d, c% f' E& }6 s3 C1 n3 V
Forced                                   : No
' p% q, O7 h0 U" Q& \- sMenu
; E1 c7 s! }* H* B" \( I00:00:00.000                             : :Chapter 01; {' U& f+ M& r5 l. D% ]
00:06:45.155                             : :Chapter 02
, n( N- `1 C/ ^00:10:11.319                             : :Chapter 03
) z6 C' l; |0 Z8 P00:14:23.780                             : :Chapter 04; a4 N- K" \; G! o
00:18:13.426                             : :Chapter 05
" w0 j! d" m+ k# M5 b; ~, x, h00:20:59.508                             : :Chapter 065 t7 f. l" g8 N+ L
00:21:47.806                             : :Chapter 07* Z, B4 [: E' |
00:27:00.994                             : :Chapter 08
( o, ?) [3 ?8 S1 |  ]9 [00:28:16.194                             : :Chapter 09
2 N- z; Y7 s# l$ \5 r/ ?- k00:29:52.249                             : :Chapter 10
: R6 R0 B+ a+ k1 h' a8 d00:31:24.508                             : :Chapter 11$ J8 m* Z/ {8 Y3 a& m
00:35:15.113                             : :Chapter 12& D3 x! [3 t8 D! R) z$ x! J
00:38:40.443                             : :Chapter 13
2 c4 V0 e. k4 }. C1 h00:45:37.443                             : :Chapter 14
' ?0 B% V2 _# q+ K$ @00:53:04.223                             : :Chapter 151 [, R, U4 h/ G7 y4 ?: e
01:06:19.392                             : :Chapter 168 {4 b7 x$ Y0 I& Y0 i
01:14:16.911                             : :Chapter 17; q3 T. W, n3 A3 q3 {4 c
01:24:35.821                             : :Chapter 18
, \% Y! t( a/ y  z* o& l01:28:31.181                             : :Chapter 198 `$ q/ b2 @& S% o7 N
01:30:19.998                             : :Chapter 20
! Z3 V* p2 Y$ b01:34:17.652                             : :Chapter 21+ E3 T* Q0 l% A) T+ g, R* L
01:38:12.678                             : :Chapter 224 u0 k# V8 ^/ e; t& D) C
01:44:45.529                             : :Chapter 23, Y. q' X& n0 g( s( f) {
01:48:17.616                             : :Chapter 24
- _2 j9 S1 Z- \01:50:03.430                             : :Chapter 25
5 b3 P3 T2 `) A) m( L! H% U01:51:14.710                             : :Chapter 26
- {0 D8 t3 C: l$ L* l7 P
4K321提示您 点击下方附件名称 即可开始下载( k$ g* Q# u: L- E6 M! y3 P2 e

7 ^8 J' P0 K( @4 l6 H7 n  n+ D) W# f
8 _; P# g7 z# m3 P- C# w5 G
多版本下载时请注意区分
9 F- m8 T" d% L9 Y1 g+ X( T: v% m- @& M: L4 w
6 g1 n; }' J" ~
雷神4:爱与雷霆 Thor.Love.and.Thunder.2022.1080p.3D.BluRay.x264.TrueHD.7.1.Atmos-3D原盘下载; ?' Q3 k+ V7 v0 i7 l

# B7 v+ g: d6 K4 C8 B雷神4:爱与雷霆 Thor.Love.and.Thunder.2022.1080p.3D.BluRay.Half-OU.x264.TrueHD.7.1.Atmos-FGT 18.73GB6 I6 s9 Z* O! b/ o

Thor.Love.and.Thunder.2022.1080p.3D.BluRay.Half-OU.x264.TrueHD.7.1.Atmos-FGT.torrent ( 24.09 KB )


2 A/ h: f" P5 H- R! g! L4 E3 J- K$ ~; _
雷神4:爱与雷霆 Thor.Love.and.Thunder.2022.1080p.3D.BluRay.Half-SBS.x264.DTS-HD.MA.7.1-FGT 17.23GB
+ q! ~1 J. g, M. b% d4 Z

Thor.Love.and.Thunder.2022.1080p.3D.BluRay.Half-SBS.x264.DTS-HD.MA.7.1-FGT.torrent ( 22.21 KB )


$ b$ k. C* r3 }2 g) k/ {
1 d  B8 w8 _4 a雷神4:爱与雷霆 Thor.Love.and.Thunder.2022.1080p.3D.BluRay.Half-OU.x264.DTS-HD.MA.7.1-FGT 18.29GB
' d+ J6 s% Q# v* r

Thor.Love.and.Thunder.2022.1080p.3D.BluRay.Half-OU.x264.DTS-HD.MA.7.1-FGT.torrent ( 23.53 KB )

: l; ~, q, `0 L& D9 F
0 B7 v# r) K0 N- O8 j9 I1 K2 O
雷神4:爱与雷霆 Thor.Love.and.Thunder.2022.1080p.3D.BluRay.Half-SBS.x264.TrueHD.7.1.Atmos-FGT 17.66GB
  y$ k- H" q  H# F3 M& x4 Y

Thor.Love.and.Thunder.2022.1080p.3D.BluRay.Half-SBS.x264.TrueHD.7.1.Atmos-FGT.torrent ( 22.76 KB )

: |3 ~7 M0 v0 y
2 X, \% w. C5 i
回复

使用道具 举报

全部回复2 显示全部楼层
shiji1973 发表于 2023-12-25 08:51:16 | 显示全部楼层
感谢分享精彩电影
回复 支持 反对

使用道具 举报

jayden3618手机认证 发表于 2024-3-3 07:33:46 | 显示全部楼层
我也来看看
# _* z0 S( ?' J+ R
回复 支持 反对

使用道具 举报

声明:您在社区发表的所有信息仅代表用户个人观点,与本网站立场无关,希望各位烧友理性发言,不发表违法国家法律禁止的话题。

您需要登录后才可以回帖 登录 | 立即注册

本版积分规则

联系客服 关注微信 下载APP 返回顶部 返回列表