开启左侧

蜘蛛侠:英雄无归 Spider-Man.No.Way.Home.2021.1080p.3D.BluRay.x264.TrueHD.7.1.Atmos-3D原盘电影下载

小山雀 发表于 2023-3-10 13:57:39 | 显示全部楼层 |阅读模式
蜘蛛侠:英雄无归 豆瓣评分: 6.6分
年代:2021年上映
片长:148分钟
类型:动作 科幻 奇幻 冒险 
导演:乔·沃茨
主演:汤姆·赫兰德 / 赞达亚 / 本尼迪克特·康伯巴奇 / 雅各布·巴特朗 / 托比·马奎尔
3 D 格式:half-ou sbs 

封装音轨:DTS-HD.MA 7.1 Dolby TrueHD 7.1 Dolby Atmos 
简       介2 E/ v, Y' W2 @: ~5 r! Y! [

( @# R  B# ?8 G  《蜘蛛侠:英雄无归》是英雄系列三部曲的完结篇,也标志着漫威多元宇宙的正式开启。此次,蜘蛛侠(汤姆·赫兰德 饰)与奇异博士(本尼迪克特·康伯巴奇 饰)继《复联4》后再度联手打响时空混战。蜘蛛侠借助奇异博士操控时空的能力打开了时空通道,引发了前所未见的危机。: E) [- [0 D/ y+ j. O: h% j

6 i' l2 `, Z4 t4 p: l影片参数
6 u8 z0 ]4 l4 Q2 I' v4 H8 W8 s
Video% I& i6 a: y, w2 R5 W
ID                                       : 1
$ F7 d. y) D3 f0 KFormat                                   : AVC
3 w$ g( t) O6 o! E3 \  K- GFormat/Info                              : Advanced Video Codec5 D; T& V  I7 A3 P
Format profile                           : [email protected]
, @) A  B  V- e4 h& m: LFormat settings                          : CABAC / 2 Ref Frames
% W* Y4 j: o0 O+ Z% D: tFormat settings, CABAC                   : Yes
# W, K8 b" T/ W1 Z! [; lFormat settings, Reference frames        : 2 frames: ^, ~" E0 R; W5 K! t
Codec ID                                 : V_MPEG4/ISO/AVC  O6 j1 @  z& G8 r. R1 `
Duration                                 : 2 h 28 min) c$ ~: O4 g% `) C
Bit rate                                 : 14.9 Mb/s% o0 E, g! K7 A+ t( C4 }: c3 ~
Nominal bit rate                         : 16.0 Mb/s
0 C/ J3 [+ o7 Y3 E  pWidth                                    : 1 920 pixels) m( M/ F% O, y* |( O) I& U
Height                                   : 1 080 pixels
' F% T, ]1 o' `7 t( lDisplay aspect ratio                     : 16:99 V- i5 J5 [8 f- b* K
Frame rate mode                          : Constant
: H) X- R1 X. z3 u7 F  g2 OFrame rate                               : 23.976 (24000/1001/189150) FPS
8 t  P% n* _( h6 f" B1 [1 tColor space                              : YUV
1 F% D& k5 F0 E1 WChroma subsampling                       : 4:2:0
& j( @/ z( t( u; F0 y' UBit depth                                : 8 bits
5 Q5 o& }5 F! S- s% T0 u8 YScan type                                : Progressive8 I/ N! l/ }+ f+ C
Bits/(Pixel*Frame)                       : 0.300
8 e# I0 |; v3 a- z4 TStream size                              : 15.4 GiB (73%); ~; u- |- y/ f# i) Y7 M
Writing library                          : x264 core 148
6 o8 z) J6 p6 l5 S$ ^+ i, jEncoding settings                        : cabac=1 / ref=1 / deblock=1:-1:-1 / analyse=0x3:0 / me=hex / subme=5 / psy=0 / mixed_ref=0 / me_range=16 / chroma_me=1 / trellis=0 / 8x8dct=1 / cqm=0 / deadzone=21,11 / fast_pskip=0 / chroma_qp_offset=0 / threads=48 / lookahead_threads=8 / sliced_threads=0 / nr=0 / decimate=1 / interlaced=0 / bluray_compat=0 / constrained_intra=0 / bframes=2 / b_pyramid=0 / b_adapt=1 / b_bias=0 / direct=1 / weightb=0 / open_gop=0 / weightp=0 / keyint=24 / keyint_min=13 / scenecut=40 / intra_refresh=0 / rc_lookahead=24 / rc=cbr / mbtree=0 / bitrate=16000 / ratetol=1.0 / qcomp=0.60 / qpmin=0 / qpmax=69 / qpstep=4 / vbv_maxrate=16000 / vbv_bufsize=16000 / nal_hrd=none / filler=0 / ip_ratio=1.40 / pb_ratio=1.30 / aq=1:1.00
( Z4 P9 i4 t# YDefault                                  : Yes
) o3 C3 z6 R4 w% aForced                                   : No6 g  |# R' ^- C: R9 t) J1 O9 I
Color range                              : Limited* m% v9 Y6 d1 @
Color primaries                          : BT.7097 O  D% @" v2 G; a$ i; D4 ^  \8 g
Transfer characteristics                 : BT.709
$ B% [7 m$ k% m" C, j6 t# |1 NMatrix coefficients                      : BT.709
8 g$ G+ p! C1 L  {" p3 a; F. L: iAudio #15 s% p. V& Z2 O: q; e; t* {
ID                                       : 2
4 n) T9 v* o- \/ i+ w% zFormat                                   : DTS XLL: g9 A* y. A, D0 T6 }% U9 j
Format/Info                              : Digital Theater Systems2 W* z. B+ v0 W/ o9 P9 h" {; r
Commercial name                          : DTS-HD Master Audio
+ R% J2 E3 k$ C! _# Y2 OCodec ID                                 : A_DTS
' n- C  `/ h9 Y$ c9 b9 EDuration                                 : 2 h 28 min
$ `$ A, I/ z. c  rBit rate mode                            : Variable2 I1 b5 z3 ]0 W
Bit rate                                 : 3 851 kb/s
7 }/ j% i, [* t  C% h0 p4 F2 A* vChannel(s)                               : 8 channels
- c1 y3 U  [; }3 {& _/ e/ e; r+ uChannel layout                           : C L R LFE Lb Rb Lss Rss
' N" P% V7 k% j! I1 O, rSampling rate                            : 48.0 kHz3 Z# @: h, m, |, e" t! R9 q
Frame rate                               : 93.750 FPS (512 SPF)
  f: L( Y: Y5 O% q! FBit depth                                : 24 bits
5 ^. Y' b. k" D7 h) S" H, d# W" uCompression mode                         : Lossless: e) p, }4 j! T) _! y9 p5 b$ S
Delay relative to video                  : 4 ms' ], \5 y2 }& B5 j
Stream size                              : 3.99 GiB (19%)
' q+ F, }; K/ L5 l+ J3 \Title                                    : DTS-HD MA 7.11 x3 M0 g0 F6 D
Language                                 : English
2 k! I/ z; Q. o" }Default                                  : Yes
% i* w: W" i2 _% NForced                                   : No& h& P! u6 u! y
Audio #2# `$ g7 d2 I) }* q; I
ID                                       : 3
( r# N+ ?/ k0 T: D' w9 cFormat                                   : DTS XLL
" i3 A* i# c/ h; j/ m4 \# lFormat/Info                              : Digital Theater Systems+ ~& n" n8 H5 C  ?3 b
Commercial name                          : DTS-HD Master Audio
, T* [5 T/ h: }- A6 ^Codec ID                                 : A_DTS$ s, a3 F; x% q4 h8 n: @
Duration                                 : 2 h 28 min1 x5 f/ c1 `3 ^# H5 X
Bit rate mode                            : Variable
$ S+ a& c5 \+ j+ u& b/ NBit rate                                 : 928 kb/s! {' u5 |  z1 R+ b
Channel(s)                               : 2 channels2 Z* w: e- Z1 G
Channel layout                           : L R
/ w, U  O: f- o2 _6 h# jSampling rate                            : 48.0 kHz4 d* ?& L. ^  w
Frame rate                               : 93.750 FPS (512 SPF)
* S0 p; ~# R! lBit depth                                : 16 bits3 G- H9 F3 i" u/ C3 r* G
Compression mode                         : Lossless) G- k! ]1 ]0 o, l8 s* j$ ~! e
Stream size                              : 983 MiB (5%)) s: Q0 B' A2 |0 X  \+ i' E
Title                                    : DTS-HD MA 2.0# F% B1 @! w% o, i, @* Z1 H
Language                                 : English
0 I; E( ^9 ?/ I' ZDefault                                  : No9 m& H* [: ?3 ?7 F
Forced                                   : No
  Y/ Q( T# l; f3 o$ g+ wAudio #3
1 c2 Q9 [! i6 V+ yID                                       : 4
1 v+ p/ f( w$ ?5 c  {Format                                   : AC-3
$ ^: {5 O" B: A' y; \. u$ j1 jFormat/Info                              : Audio Coding 3
8 D& R; G# o- `1 ~( D  O( OCommercial name                          : Dolby Digital7 \+ K3 H! e- N$ x+ ~
Codec ID                                 : A_AC3
2 }( J- u  e( s" t& j" ]. V, ~Duration                                 : 2 h 28 min# c8 J# F+ m1 ^+ E' u( \9 R
Bit rate mode                            : Constant
% f6 M( w& e4 K7 {2 E' H7 yBit rate                                 : 640 kb/s
3 {& B- R3 l! v! s3 `! dChannel(s)                               : 6 channels
: z' U' X+ C- t* dChannel layout                           : L R C LFE Ls Rs
& o' ^% S4 E' p9 mSampling rate                            : 48.0 kHz  g# \( B2 ?" z0 J7 K, f) U
Frame rate                               : 31.250 FPS (1536 SPF)8 X7 y" [' d" C- S0 A
Compression mode                         : Lossy
  r' k& i, U5 sStream size                              : 678 MiB (3%)8 Q& a) q9 S" F3 D: l
Title                                    : DD 5.1
' E( o2 Q# o& Y! \Language                                 : English$ W( K) `( J% }6 i( _
Service kind                             : Complete Main. c3 P$ l$ b% j4 y1 b
Default                                  : No5 ^" ]! C" H, q( P0 s
Forced                                   : No, R! G7 V/ C1 i
Text #1
: {4 U& E4 B- Y8 V$ F4 \ID                                       : 5! g0 _9 [' J% T( q7 n3 |* `/ n' E
Format                                   : PGS
' w' W1 v, F& q& G3 aMuxing mode                              : zlib( K  s4 W! [# G3 x# ~
Codec ID                                 : S_HDMV/PGS
( X! u& h1 k* A' n+ |6 @Codec ID/Info                            : Picture based subtitle format used on BDs/HD-DVDs
9 k$ u( p) G% Y' O6 G- b2 cDuration                                 : 2 h 27 min
0 ^5 s+ ]7 D/ P6 ~" p8 w  rBit rate                                 : 49.8 kb/s* E' V- V6 `; y
Frame rate                               : 0.496 FPS! Z6 u3 x$ M) X9 e9 e
Count of elements                        : 4402
& }* x- T% R! w$ o+ h5 JStream size                              : 52.7 MiB (0%)( Q, M+ X& S' M6 L( ^
Language                                 : English; A) D( ?6 y# c5 J
Default                                  : Yes. O( g0 v1 s2 B) k& ^6 V( {, }
Forced                                   : No0 g* L/ U/ a2 ?2 E5 T
Text #20 b! m3 f( ~  g. i. E
ID                                       : 61 W  y6 x/ g& F; n% e
ID in the original source medium         : 4610 (0x1202)
8 ^4 l* g/ N3 O7 G5 I/ p1 J4 C5 c( NFormat                                   : PGS
5 L- I- Z1 E2 m- c. l$ I, O, _Muxing mode                              : zlib
  v0 K) `5 n6 l* O9 U+ GCodec ID                                 : S_HDMV/PGS2 L+ x' H' M) S1 ^# f' Q
Codec ID/Info                            : Picture based subtitle format used on BDs/HD-DVDs
0 k' n: Y- k4 X5 _; I6 K6 l1 Y6 jDuration                                 : 2 h 27 min$ c0 @3 e+ V* O$ H  c& ?
Bit rate                                 : 27.3 kb/s
- ?8 T8 A  B9 l% H; F& BFrame rate                               : 0.418 FPS
+ s( M7 J/ ~& [* ^4 i4 O: PCount of elements                        : 3708
, T0 C9 a8 F$ I/ Y6 LStream size                              : 28.9 MiB (0%)
9 ~# O3 w( T8 _) w" o7 @. B" ?3 OLanguage                                 : French: v4 n1 N# I( c# U: j
Default                                  : No& V2 @. Y6 l/ c% ?1 j9 {9 ^5 D% [
Forced                                   : No
1 R! _2 b/ r+ wOriginal source medium                   : Blu-ray/ ~( |( d' K/ {
Text #3
7 F! M  R' E5 ^ID                                       : 7* \) t4 u' d: d0 {
ID in the original source medium         : 4611 (0x1203)
8 E9 i7 Y9 P. _# T9 }! kFormat                                   : PGS# J- K# k3 t0 K
Muxing mode                              : zlib
. {7 @' o2 n! b! z" G$ R( oCodec ID                                 : S_HDMV/PGS
& P1 K% |0 B4 C$ K" O7 ]Codec ID/Info                            : Picture based subtitle format used on BDs/HD-DVDs1 T5 H  r6 ~2 Y( m( D
Duration                                 : 2 h 28 min
% `; E+ |0 d+ r3 [: c, P1 {( yBit rate                                 : 30.4 kb/s$ H5 J: l" Q( t% `% g& i
Frame rate                               : 0.430 FPS
. _" B1 N0 q' `) b3 ^9 }! oCount of elements                        : 3821
) H6 N! a/ S& c5 i% C+ b5 WStream size                              : 32.2 MiB (0%)
. d  V. V- \3 ULanguage                                 : Spanish
0 s% n4 c3 |7 ^5 G/ x0 b* mDefault                                  : No' @) T6 l  B, v& j% b3 J' J1 Z6 @
Forced                                   : No* H9 v; s& S3 t, T3 a
Original source medium                   : Blu-ray
/ @- t/ n/ B, A8 Y# ZText #4/ I+ q2 U, o. {9 }) x0 q
ID                                       : 8
8 r; J0 y2 m$ E$ X+ }- JID in the original source medium         : 4611 (0x1203)# }4 y* g$ Y% @
Format                                   : PGS
6 R7 j5 N/ k+ n8 Q4 ?$ {' ?- e! LMuxing mode                              : zlib: d- r4 r/ C$ K+ C# Q* @) h8 C
Codec ID                                 : S_HDMV/PGS
3 V7 i6 e( b! {& z0 d1 BCodec ID/Info                            : Picture based subtitle format used on BDs/HD-DVDs
' @! m4 w. D1 T/ pDuration                                 : 2 h 17 min/ j0 D* N  M$ Z3 v( Q/ s' N
Bit rate                                 : 204 b/s
& f/ b3 d, F; l8 IFrame rate                               : 0.002 FPS
7 o3 k1 ~& B! f. B( t7 @. X% `Count of elements                        : 18
8 e6 P$ X; f( XStream size                              : 207 KiB (0%)4 H; x5 N  `" \; U
Language                                 : Spanish& v# R& }( f6 D4 m# ~  C7 a
Default                                  : No: {4 G' j, f* A- a
Forced                                   : No$ A) s9 C- K3 I1 g6 b2 c8 V/ {8 R
Original source medium                   : Blu-ray
, o) K  n" Q' z; S" TText #5
7 T- a' `: C! \% ?- j: P4 HID                                       : 9
/ P1 i6 |' D( _Format                                   : PGS- ?+ x0 F5 j' D8 ?% i( [
Muxing mode                              : zlib. B1 ^- e2 A+ ]5 o$ C
Codec ID                                 : S_HDMV/PGS
6 n( o+ A& \6 t; f# P) xCodec ID/Info                            : Picture based subtitle format used on BDs/HD-DVDs
3 P, k/ J( o5 `0 uDuration                                 : 2 h 28 min7 V  L) u" |/ h
Bit rate                                 : 28.5 kb/s% F# h7 W" w- y" O/ c0 m
Frame rate                               : 0.430 FPS' [0 I, W* @, ]$ ]; m
Count of elements                        : 3821! C6 o+ X) a9 y  X- c
Stream size                              : 30.2 MiB (0%)
2 c. H$ M6 a7 |7 rTitle                                    : Chinese (Cantonese)" t0 Z0 [5 e: W) ~; t& T8 }
Language                                 : Chinese7 e  E" v8 Q- `2 w( z
Default                                  : No
/ c1 r- L2 Q* \6 a. X; d  A$ SForced                                   : No  |0 M+ [9 u3 @! D0 @) P3 V
Text #6
2 U7 X6 v: ]! |" H+ Y' G0 G0 ZID                                       : 10
9 \9 K$ r" W! z% X. C' p7 [Format                                   : PGS
* g# ^7 z9 B9 \, yMuxing mode                              : zlib
8 d6 ?  t' x* `% X# |2 ~Codec ID                                 : S_HDMV/PGS" D& N" g0 ?2 M- K4 N8 R
Codec ID/Info                            : Picture based subtitle format used on BDs/HD-DVDs/ E, f6 q+ J7 B
Duration                                 : 2 h 28 min
/ r; m1 U9 w( ?, l7 ?' OBit rate                                 : 29.5 kb/s
- t# U5 t  a! G, S4 \: IFrame rate                               : 0.444 FPS
; w8 x% R8 G1 O3 Z0 M5 b" B3 B* hCount of elements                        : 3945
& ^, D+ T' B& DStream size                              : 31.2 MiB (0%)1 ~" i1 w" k  `8 V
Title                                    : Chinese (Simplified)
' D7 o- j$ [; t" m- }( F0 h3 |Language                                 : Chinese, q9 p+ r: n4 S
Default                                  : No
6 J: g$ c/ O# {Forced                                   : No) m* o4 _* h! E- t, r: I2 R; O
Text #7
- B% ]' S$ t& g! ?# I" XID                                       : 11
6 d4 r7 y  q* \4 M4 e& n0 aFormat                                   : PGS/ h7 Y$ u; u1 N, O1 t* O% g/ U2 ^
Muxing mode                              : zlib
* h9 |9 f( z) T, Z& E  I: ~- tCodec ID                                 : S_HDMV/PGS$ T2 h. J8 \* ], N1 o% b; W$ ]
Codec ID/Info                            : Picture based subtitle format used on BDs/HD-DVDs
, J$ }9 w& y) hDuration                                 : 2 h 28 min
  g7 S$ I1 _$ H+ M# p7 Z! {; ^Bit rate                                 : 26.1 kb/s
& w" B6 A0 s) w  F$ bFrame rate                               : 0.445 FPS" s: d3 [- _2 f. }5 {
Count of elements                        : 3955+ G- V5 W* m) v
Stream size                              : 27.6 MiB (0%)+ n" g. Q4 I7 A
Title                                    : Chinese (Traditional)
6 d  P9 U1 J: y: GLanguage                                 : Chinese& l( w" F' L7 Y- i" ^
Default                                  : No
3 P( d" c+ q. U. a9 x# CForced                                   : No
2 N6 r% G) w% f7 x: R4 V& T$ IText #8" ^3 a/ o2 z; a1 J* |, @
ID                                       : 12
  L# e2 V' a9 P% X* WFormat                                   : PGS& }% q  ~1 b* Q' U1 v+ B: \# }
Muxing mode                              : zlib/ S' b5 E' `& j$ k# Z
Codec ID                                 : S_HDMV/PGS2 O( v, j9 g+ t; d+ r! a- E  K
Codec ID/Info                            : Picture based subtitle format used on BDs/HD-DVDs* @- P  j" D. K; A
Duration                                 : 2 h 28 min
3 R+ b- m# w4 r; \5 F: b4 ~Bit rate                                 : 26.4 kb/s
" I: R% V% p& {4 }Frame rate                               : 0.451 FPS
: k5 Q7 e* A, Y* m/ l6 z0 LCount of elements                        : 4009
) P7 i+ y& B; [, k% t* \( }4 FStream size                              : 27.9 MiB (0%)
9 v& g& A/ P; H) x2 p; G4 @Title                                    : Korean4 }2 n8 J  T6 p. _! n
Language                                 : Korean9 P; J% f! j% `! t
Default                                  : No& a: m. N" q, Y8 m6 Y9 x$ p
Forced                                   : No- d. U( _7 I! J! X
Text #9' z: D8 D. r5 i* S
ID                                       : 13
' A" p" r  X. t& B) g% u0 A4 U' WFormat                                   : PGS
# ]; a  V" B. ]/ EMuxing mode                              : zlib, Q0 N5 U, e7 K, Q3 |) b% T
Codec ID                                 : S_HDMV/PGS% Y5 n6 v: p  e. w
Codec ID/Info                            : Picture based subtitle format used on BDs/HD-DVDs8 X/ k4 k- j/ ]# u0 G, A! \; _
Duration                                 : 2 h 28 min7 [3 a0 G  ?; J1 ]* ?0 n
Bit rate                                 : 32.8 kb/s* J4 i2 S! \9 i$ f* e. t
Frame rate                               : 0.429 FPS% }% P7 ~& T4 U7 C, X' b
Count of elements                        : 3809
. T( W0 S3 l( a. Q/ u* vStream size                              : 34.7 MiB (0%)
- ^/ U: T" v- U7 v1 Q: U( UTitle                                    : Portuguese (Brazilian)
9 Z/ i2 E; ~( n6 hLanguage                                 : Portuguese
& M7 w/ u" k' \% F7 o% xDefault                                  : No
3 g. P! q2 q2 Q# F1 K. B! zForced                                   : No
3 z4 ]* L+ G" K1 ~$ NText #106 H0 g" z8 l7 j' K
ID                                       : 149 t9 @6 C& L! j8 o" ]
Format                                   : PGS+ i! y/ g: A5 |* S
Muxing mode                              : zlib
! x  [& \; F; e8 p9 k! [4 tCodec ID                                 : S_HDMV/PGS
7 A; `! t- l5 {, f1 Q9 ]( ^1 U8 o" kCodec ID/Info                            : Picture based subtitle format used on BDs/HD-DVDs$ Y7 N+ \' o" u0 D3 k
Duration                                 : 2 h 28 min) h$ Q& J9 j3 Q2 a1 e
Bit rate                                 : 30.4 kb/s% t( q( {0 q1 |
Frame rate                               : 0.430 FPS
/ {' z7 ?& w, i9 M* gCount of elements                        : 3821  o8 R) P3 o6 l2 G9 ~" P; [
Stream size                              : 32.2 MiB (0%)
; B8 u) Z: t) UTitle                                    : Spanish (Latin American)! k# u+ ~/ |9 k& y4 ?* d
Language                                 : Spanish
& ^/ t7 s( h2 ?Default                                  : No0 K  o/ p1 Y5 O; S/ n/ \
Forced                                   : No
( P: t, t, M4 sText #11$ t1 e6 C$ ]' |+ S- K8 l4 e( e9 I
ID                                       : 15
8 |: _! R- t0 b( b) r3 NFormat                                   : PGS
* a, \; E( I# b2 V* M3 F) mMuxing mode                              : zlib
7 B% z  [. F# c! n3 c, JCodec ID                                 : S_HDMV/PGS
- V2 B. N1 M& ?+ F5 W( XCodec ID/Info                            : Picture based subtitle format used on BDs/HD-DVDs5 q7 F6 ?, i3 y1 C  g
Duration                                 : 2 h 28 min) s9 S! `$ l# H" Y6 U2 M8 {5 x
Bit rate                                 : 32.5 kb/s4 z- d5 Y' w; `% _; E
Frame rate                               : 0.439 FPS
5 c# K5 G& x/ z" I7 t+ v+ f+ ~Count of elements                        : 3896' W% e' o4 W1 L% I( w' P8 \1 O
Stream size                              : 34.4 MiB (0%)
( ]% Q* ?0 h! F5 rLanguage                                 : Thai
' F! z0 H& S; e, F9 aDefault                                  : No
4 \! H, O: I! S! m8 IForced                                   : No- U) E: D6 d2 \, I8 X2 @, t0 g- f# K
Menu8 f9 m8 c# f; M, @9 |
00:00:00.000                             : en:Chapter 01
+ y+ j, J# G2 p& X5 j, m& _' u00:05:01.634                             : en:Chapter 02: t& L. Z1 Z5 \* y8 v* N. L
00:11:57.049                             : en:Chapter 03" \8 [& T: z* R! C! Q
00:18:37.366                             : en:Chapter 04
; ~2 k: G* [6 J0 [. a  \00:26:58.908                             : en:Chapter 054 Y6 D' E. ~; Q: S" i
00:37:19.695                             : en:Chapter 06
* y4 ]4 m2 [$ G. D) Y2 }3 G4 Q* P% R00:48:00.460                             : en:Chapter 07
( S; v$ l0 M: L8 y  y00:59:49.168                             : en:Chapter 083 i  M% J# m3 U* D( d
01:04:05.091                             : en:Chapter 09: d! S# t% k3 W* s# P" l8 U2 |
01:09:49.768                             : en:Chapter 10
+ g, K9 w4 _! e& y01:18:27.911                             : en:Chapter 11
2 p7 j7 {, e0 V, ^6 H/ A01:28:58.082                             : en:Chapter 12, T6 j5 v2 w: p/ \! D0 S
01:46:36.848                             : en:Chapter 13
# m6 m) T: z9 E0 V& }% f02:05:37.780                             : en:Chapter 14
! {9 m5 D% }* t  P7 d9 J4 x02:13:02.057                             : en:Chapter 15" i3 j3 \" K* D' x8 d% c9 T9 P+ ^
02:18:54.326                             : en:Chapter 16
7 ]9 k3 |# d. m4 u' g! R
4K321提示您 点击下方附件名称 即可开始下载6 ^9 g" N. O2 \. l* S
  {# L/ P6 x2 {& @: B3 q3 B
多版本下载时请注意区分& Y9 a; }% X- @5 ~- p- d
5 v& J! k) I) B% l7 f! k
蜘蛛侠:英雄无归 Spider-Man.No.Way.Home.2021.1080p.3D.BluRay.x264.TrueHD.7.1.Atmos-3D原盘电影下载
2 d% \& |. \/ \! \
* @0 Z9 y7 S" C+ z; F% ]2 ]蜘蛛侠:英雄无归 Spider-Man.No.Way.Home.2021.1080p.3D.BluRay.Half-OU.x264.DTS-HD.MA.7.1-FGT 21.19GB, s7 o) Z4 e1 P; j4 `

Spider-Man.No.Way.Home.2021.1080p.3D.BluRay.Half-OU.x264.DTS-HD.MA.7.1-FGT.torrent ( 27.17 KB )

4 T( O( E: R, W% x; y  J
' n7 Q4 f  p& N. [# B( v" c
蜘蛛侠:英雄无归 Spider-Man.No.Way.Home.2021.1080p.3D.BluRay.Half-OU.x264.TrueHD.7.1.Atmos-FGT 22.13GB
# S* s% y% f4 n

Spider-Man.No.Way.Home.2021.1080p.3D.BluRay.Half-OU.x264.TrueHD.7.1.Atmos-FGT.torrent ( 28.35 KB )


* r' @; \; w, N/ J& A5 q6 W0 `5 p; d, l# `  z- g
蜘蛛侠:英雄无归 Spider-Man.No.Way.Home.2021.1080p.3D.BluRay.Half-SBS.x264.DTS-HD.MA.7.1-FGT 19.85GB9 N% [; `! D: A! ]& ^3 R

Spider-Man.No.Way.Home.2021.1080p.3D.BluRay.Half-SBS.x264.DTS-HD.MA.7.1-FGT.torrent ( 25.49 KB )

* v6 \1 q1 O5 _& `
' X4 r2 _1 b3 |! Q: j; [. G0 W  T
蜘蛛侠:英雄无归 Spider-Man.No.Way.Home.2021.1080p.3D.BluRay.Half-SBS.x264.TrueHD.7.1.Atmos-FGT 20.79GB, C) z, D0 l- O& b7 T% M; L

Spider-Man.No.Way.Home.2021.1080p.3D.BluRay.Half-SBS.x264.TrueHD.7.1.Atmos-FGT.torrent ( 26.67 KB )


) ~& _. P* s2 e* c. k# j1 I) J( r3 H, ~" S3 O7 G0 m0 u6 H3 [

点评

感谢楼主  发表于 2024-4-7 09:25
回复

使用道具 举报

全部回复1 显示全部楼层
jayden3618手机认证 发表于 2023-11-19 13:35:09 | 显示全部楼层
谢谢分享
9 z+ j7 J9 _4 B0 p/ e& k- |
回复

使用道具 举报

声明:您在社区发表的所有信息仅代表用户个人观点,与本网站立场无关,希望各位烧友理性发言,不发表违法国家法律禁止的话题。

您需要登录后才可以回帖 登录 | 立即注册

本版积分规则

联系客服 关注微信 下载APP 返回顶部 返回列表