开启左侧

多力特的奇幻冒险 Dolittle.2020.1080p.3D.BluRay.x264.TrueHD.7.1.Atmos-3D原盘电影下载

小山雀 发表于 2023-3-10 13:54:44 | 显示全部楼层 |阅读模式
多力特的奇幻冒险 豆瓣评分: 5.7分
年代:2020年上映
片长:101分钟
类型:喜剧 奇幻 冒险 
导演:斯蒂芬·加汉
主演:小罗伯特·唐尼 / 汤姆·赫兰德 / 拉米·马雷克 / 麦克·辛 / 杰西·巴克利
3 D 格式:half-ou sbs 

封装音轨:DTS-HD.MA 7.1 Dolby TrueHD 7.1 
简       介
4 s4 j4 `( F: o" M. q0 w- ]3 g
( O- ^1 W/ p. L& d. f  故事发生在英国维多利亚女王(杰西·巴克利 Jessie Buckley 饰)统治时期,多力特(小罗伯特·唐尼 Robert Downey Jr. 饰)拥有着能够和动物交谈的特殊能力,和妻子一起在老家经营着一家动物医院。
1 S. i, r" T) ~0 I# j  一场意外夺走了多力特妻子的生命,这巨大的打击让多力特封闭起了心门,拒绝和任何人类接触。一天,一个名叫汤姆(哈里·科莱特 Harry Collett 饰)的男孩闯入了多力特的家,带来了一只受伤的松鼠,希望多力特能够救它。与此同时,维多利亚女王患上了一种怪病,于是派出了侍女萝丝(卡梅尔·拉尼亚多 Carmel Laniado 饰)去拜访多力特,请他出山。多力特所拥有的动物庄园归属于女王的名下,如果女王去世了,那么多力特将失去他和动物们这唯一的乐园。
; X& p$ @& M" A8 {3 n. t- C! m, v. N: w5 y& t  X
获奖情况 (共7项)
  x3 ]) y" Z' H9 A6 X9 o( V3 _
# }" r$ A8 Y) p# i( z7 f
! H* S; f/ X8 D
  第41届金酸莓奖 (2021)
1 m3 Z0 s' p0 w- _$ C+ l- ?  最差影片(提名), |' |6 s% f$ k
  最差男主角(提名)
  n/ S) }3 w! p4 \/ _; y, x   └──小罗伯特·唐尼 (id:1016681)
5 [! W: a2 u7 @( X  最差导演(提名)
% u* k  |# L( b   └──斯蒂芬·加汉 (id:1045122)
$ d1 H$ y% d6 X  Y7 F  最差剧本(提名)+ C% M6 x. r. r% |# P8 Q. f; E
  最差银幕组合(提名)
: g1 ~6 w0 C7 r$ M3 o9 V   └──小罗伯特·唐尼 (id:1016681)
2 j% s  i: Q) f( u* {  最差前传、重拍、恶搞及续集电影
8 Q/ u& n% @  m( A, y, X) T2 u. N  第23届美国服装设计工会奖 (2021)+ g$ J9 V( j; X' V$ \+ @
  科幻/奇幻题材电影最佳服装设计(提名)
/ M5 q; J1 y7 H4 \& m, }   └──珍妮·碧万 (id:1278169)
# {( _2 F+ [5 p' y7 ?; N5 k3 I* @
" [! V. o  S% t/ P+ U: Q影片参数8 C0 A; z0 [* Y( Z: e7 ?  P0 u
Video! S! A" I/ ?) C& M8 Y; B7 F0 q8 D7 M
ID                                       : 15 K6 \* J6 H+ @7 D. L* {# v( w, q
Format                                   : AVC
' t* @1 k4 z9 WFormat/Info                              : Advanced Video Codec" \+ W7 H8 ~& s
Format profile                           : [email protected]
1 Q) q9 V0 P) xFormat settings                          : CABAC / 2 Ref Frames
1 N9 [5 O5 P, j3 WFormat settings, CABAC                   : Yes
. b8 k4 l; |& \Format settings, Reference frames        : 2 frames9 t6 T0 E) m: e! z5 e- _2 F  n4 ^5 N
Codec ID                                 : V_MPEG4/ISO/AVC
; ~5 i4 ?- g2 X! G6 w) K& e$ pDuration                                 : 1 h 41 min5 p4 G  z* v' A2 b: k( s/ o
Bit rate                                 : 14.3 Mb/s
% W' E2 v5 n& [& i4 c$ g6 U5 HNominal bit rate                         : 15.5 Mb/s1 E1 u0 w/ C* m
Width                                    : 1 920 pixels
6 U. r) Z# m2 a# qHeight                                   : 1 080 pixels$ Z* i2 J0 I2 w' @" p" x6 f9 K/ W5 W
Display aspect ratio                     : 16:9+ {0 j7 R# f* u! D
Frame rate mode                          : Constant: Q. r/ s& [4 [% M8 I
Frame rate                               : 23.976 (24000/1001/189150) FPS
& D8 S/ M$ \4 l$ `# o8 p% ^Color space                              : YUV
+ H4 g1 l& e1 {3 @" o% {Chroma subsampling                       : 4:2:0) S: Q/ u6 N; M
Bit depth                                : 8 bits. R7 i: N9 l& b1 u& F; K
Scan type                                : Progressive; F/ U  C3 X8 q  i; M5 a9 |
Bits/(Pixel*Frame)                       : 0.288& D3 A( v" k' y) n' B8 A
Stream size                              : 10.1 GiB (52%)9 ^) X$ \% ], k$ `3 X1 D8 H# R
Writing library                          : x264 core 148
, H- B4 j$ Z; j6 l  T3 wEncoding settings                        : cabac=1 / ref=1 / deblock=1:-1:-1 / analyse=0x3:0 / me=hex / subme=5 / psy=0 / mixed_ref=0 / me_range=16 / chroma_me=1 / trellis=0 / 8x8dct=1 / cqm=0 / deadzone=21,11 / fast_pskip=0 / chroma_qp_offset=0 / threads=48 / lookahead_threads=8 / sliced_threads=0 / nr=0 / decimate=1 / interlaced=0 / bluray_compat=0 / constrained_intra=0 / bframes=2 / b_pyramid=0 / b_adapt=1 / b_bias=0 / direct=1 / weightb=0 / open_gop=0 / weightp=0 / keyint=24 / keyint_min=13 / scenecut=40 / intra_refresh=0 / rc_lookahead=24 / rc=cbr / mbtree=0 / bitrate=15500 / ratetol=1.0 / qcomp=0.60 / qpmin=0 / qpmax=69 / qpstep=4 / vbv_maxrate=15500 / vbv_bufsize=15500 / nal_hrd=none / filler=0 / ip_ratio=1.40 / pb_ratio=1.30 / aq=1:1.00
+ v1 N  N, i; e# J: BDefault                                  : Yes
# ]! ?2 ?8 x( TForced                                   : No- w6 Q# K; J$ `, A+ f
Color range                              : Limited& A5 D( B; }# ?" X* R, }) W6 [
Color primaries                          : BT.7091 B' X/ I5 r7 w6 b; ~
Transfer characteristics                 : BT.709
, S+ `8 B9 e! m( M  j' M  QMatrix coefficients                      : BT.7098 O" Z/ i# {2 ~" j* U, i
Audio #1+ X+ w2 {' Z* z3 A- G2 P
ID                                       : 2
3 n5 P1 b3 }- i) t4 C7 iID in the original source medium         : 4352 (0x1100), M2 V$ ]4 L- d5 O; C+ K* j
Format                                   : MLP FBA 16-ch
1 q/ S9 O& H* X" \Format/Info                              : Meridian Lossless Packing FBA with 16-channel presentation  x6 o4 Q/ r% i" _( J: b+ J
Commercial name                          : Dolby TrueHD with Dolby Atmos  J+ _' l# k! f' I
Codec ID                                 : A_TRUEHD
+ u9 U/ H9 s9 E) j0 ~- A: fDuration                                 : 1 h 41 min
4 y. g# c& p4 O, qBit rate mode                            : Variable
! @: S# m9 U1 O" T0 z5 `7 rBit rate                                 : 2 916 kb/s
: @6 \+ M$ ^/ z3 k& q: wMaximum bit rate                         : 4 629 kb/s. C( \: ~. O$ g8 R1 q
Channel(s)                               : 8 channels
6 D# t7 h$ a" \3 lChannel layout                           : L R C LFE Ls Rs Lb Rb) O0 o; `+ Z6 N  V* u& {* T
Sampling rate                            : 48.0 kHz
3 R- s1 _1 l; @& T- r5 rFrame rate                               : 1 200.000 FPS (40 SPF)
4 V' Z( G! d/ R! D4 c/ W! uBit depth                                : 24 bits
  k4 k( \+ R3 wCompression mode                         : Lossless
! G9 X' U% `/ q- R5 F; iStream size                              : 2.07 GiB (11%)5 p2 n% I7 d( Q6 G0 r1 N$ B
Title                                    : TrueHD 7.1 Atmos' g- [5 a- x2 x) M* _
Language                                 : English7 S9 f% N; L/ C
Default                                  : Yes
! o8 r+ K4 q5 N5 OForced                                   : No
1 d( I5 W! Q1 T6 F+ k! S) k# j# eOriginal source medium                   : Blu-ray
; F# Q% \0 ^0 ^- q! yNumber of dynamic objects                : 116 W) k0 W3 f; J1 \
Bed channel count                        : 1 channel
* [$ z5 X0 y: @) d$ mBed channel configuration                : LFE
/ g( J  [) t! f7 x+ T: t4 FAudio #2
1 Y6 e6 a* }  \+ p( [; WID                                       : 3, `/ h1 ^. v0 Z( m0 @, R+ d
ID in the original source medium         : 4352 (0x1100)
$ x& y: m: n4 t6 zFormat                                   : AC-3
$ _5 l# F. Z7 p, @" xFormat/Info                              : Audio Coding 34 P/ |, C% c5 C
Commercial name                          : Dolby Digital
" ?1 W% n6 l- l. kCodec ID                                 : A_AC3! C) P, G! O, |: s
Duration                                 : 1 h 41 min% U, Q7 o# |/ }  g7 L4 f2 Z/ b& v
Bit rate mode                            : Constant/ }/ X% X: |; l  ?# Y+ J
Bit rate                                 : 448 kb/s6 N4 U( W9 ^# X5 _/ w
Channel(s)                               : 6 channels
, v7 X, Y# P/ {% j$ _( ~Channel layout                           : L R C LFE Ls Rs& z- O0 }- k4 x/ r, i
Sampling rate                            : 48.0 kHz
4 B) e! B4 F6 o6 gFrame rate                               : 31.250 FPS (1536 SPF)
6 ?9 T2 u( F9 J6 t: ?, Z3 y3 I" i+ o9 ]Compression mode                         : Lossy
3 b3 l' ]. n& J8 `+ O' e0 q/ YStream size                              : 325 MiB (2%). |. H9 W8 W1 _* [
Title                                    : DD 5.1$ X" C8 g' _3 h8 i/ k$ f: h4 z2 U
Language                                 : English
! w; J/ S0 c" I, K. I7 \Service kind                             : Complete Main1 ~; i1 [0 ^7 g# K9 n
Default                                  : No1 ?7 D% r# V" v. `5 {
Forced                                   : No( o" n9 \9 I3 W, Y
Original source medium                   : Blu-ray! h+ R' t4 H! [. C& R+ \
Audio #3
4 b7 p6 K; P4 {0 m6 h  YID                                       : 4
8 E4 n! a/ ~4 {4 sID in the original source medium         : 4354 (0x1102)- ]4 G- S# {/ e) ]2 j" a
Format                                   : DTS XLL
% F& X/ K5 z2 A0 V, ^3 TFormat/Info                              : Digital Theater Systems6 k5 O6 x; i: m  r+ m% D
Commercial name                          : DTS-HD Master Audio
6 m8 s9 d4 ~# s" M. LCodec ID                                 : A_DTS
* l$ T6 D) Y9 ^( I% lDuration                                 : 1 h 41 min
- N  w9 w/ u. U# C8 o( f. X+ H0 WBit rate mode                            : Variable
8 x& J4 ~: [, L$ B% {Bit rate                                 : 1 577 kb/s
, {/ `  _/ O( O8 S4 v+ {1 aChannel(s)                               : 2 channels
4 e, l9 e- i: ^; t* c  FSampling rate                            : 48.0 kHz. c( ]* h: H1 o
Frame rate                               : 93.750 FPS (512 SPF)
! ?: t: s" {  I& Y: Q; i! Z6 l( ?6 H8 bBit depth                                : 16 bits
) i' Q1 j2 u) B/ XCompression mode                         : Lossless, T2 g9 S6 x$ V8 M0 A/ {/ q
Stream size                              : 1.12 GiB (6%)6 z& M" d, L& p* {! L! b9 H
Title                                    : DTS-HD MA 2.0$ |& _' r, X, F" D. O
Language                                 : English
8 Y( ^7 k6 S( l' UDefault                                  : No
  e* D0 p& ?! P% C* N' XForced                                   : No
5 S* p' _7 C' Q! T9 ~$ \2 ^; H5 eOriginal source medium                   : Blu-ray
$ H  d# F+ G$ q9 LAudio #4
% o0 T: C* `# n  I& }$ ~, F) o; nID                                       : 5' V7 {6 t$ G# X) Y# a& O! l
ID in the original source medium         : 4355 (0x1103)
$ `/ n" L5 W; d( `2 b- CFormat                                   : DTS XLL
5 l- Z6 [* b- X( Q( r* p! Y# c6 `Format/Info                              : Digital Theater Systems: E( y- X6 ?* V
Commercial name                          : DTS-HD Master Audio+ `5 @6 k; M! S# q; Q) c
Codec ID                                 : A_DTS( d. _% j0 j+ b' L2 ~% o8 y5 S
Duration                                 : 1 h 41 min1 F/ ]6 `) A3 A2 r# v1 x
Bit rate mode                            : Variable& Y6 m; y: a/ C! r2 Q" Y
Bit rate                                 : 1 580 kb/s% ~' H% E& q4 Q  M, Z- n7 o3 y0 ~; n8 q
Channel(s)                               : 2 channels- b+ Z5 o4 I2 g. ~. V
Sampling rate                            : 48.0 kHz4 V. K3 _" ^" {$ r0 G& |2 K
Frame rate                               : 93.750 FPS (512 SPF)+ Z+ I7 ~  A2 o  x$ s+ _
Bit depth                                : 16 bits7 X' z8 u  a+ R- _
Compression mode                         : Lossless
  v- F7 b: e/ qStream size                              : 1.12 GiB (6%)5 [# {; ?3 S3 i- d0 M3 J
Title                                    : DTS-HD MA 2.0
& e3 l: r2 V) ]5 ^6 ^# ULanguage                                 : English5 V, C- D( Z/ M. w* ^" M
Default                                  : No- ~; p; y% i* l1 q$ j4 J* m) E
Forced                                   : No
1 d4 Z9 k6 }" DOriginal source medium                   : Blu-ray
: j4 u2 G0 ~7 `1 \0 y; {1 ?  Q' vAudio #5" d, x/ K" l2 x( x  Y8 b. m9 X
ID                                       : 6
( W' Q; b: e' c" K) V) kID in the original source medium         : 4356 (0x1104)
! ]6 v! r( O1 b- B9 E+ c* pFormat                                   : MLP FBA 16-ch
& d5 k: j; b# ]4 K8 xFormat/Info                              : Meridian Lossless Packing FBA with 16-channel presentation
( R8 Z: [% G) G6 @9 R1 _" u( bCommercial name                          : Dolby TrueHD with Dolby Atmos
2 H1 B) z" i7 P$ V7 d  _$ MCodec ID                                 : A_TRUEHD
! }% ]4 n% u' c, P6 z5 vDuration                                 : 1 h 41 min
8 _  I* Z! o$ c9 e" Q, _Bit rate mode                            : Variable
8 `- s8 {. w3 \  c+ O) b  Q! P& T+ fBit rate                                 : 2 985 kb/s, u9 i0 X) \+ G  i2 G
Maximum bit rate                         : 4 395 kb/s
1 |) [, W9 {, V- n: ]' rChannel(s)                               : 8 channels) n/ d3 |6 j7 [' v$ P
Channel layout                           : L R C LFE Ls Rs Lb Rb& E' Y1 T( ?1 t1 w
Sampling rate                            : 48.0 kHz# v" M$ N/ D! |7 A! n
Frame rate                               : 1 200.000 FPS (40 SPF)" v6 v9 D2 `* ?( u% T5 v, q
Bit depth                                : 24 bits
  I* f9 s6 ]% x2 p) R$ o/ s6 ]Compression mode                         : Lossless
, ~/ @" X* i' p# y9 LStream size                              : 2.11 GiB (11%)9 j2 j. O# L. e+ o9 b
Title                                    : TrueHD 7.1 Atmos
) a* Q4 E6 [) E! n4 GLanguage                                 : German) H# ]2 T6 Z! ?: h/ p' e& n6 \& a3 A
Default                                  : No
, S0 r& f) A6 [3 _; i- j+ YForced                                   : No
/ f4 {! `0 t4 J8 c' p% Z; JOriginal source medium                   : Blu-ray4 |: n; S' z3 W% ^' ]2 q' R
Number of dynamic objects                : 113 X5 v7 ~3 ^- _4 s9 @7 c
Bed channel count                        : 1 channel
9 g2 Z& X7 p& `+ n7 k$ R3 j( V# `Bed channel configuration                : LFE4 S3 @' k( x& p; K4 D2 ~
Audio #6: b& \) u2 g& b7 @
ID                                       : 77 g( @: ^, C2 A8 T3 u( F9 w9 M
Format                                   : E-AC-3# w! t3 Z. q* k! d4 l2 m3 a0 D
Format/Info                              : Enhanced AC-36 z, g0 q! r) z4 t7 M0 |$ w, {
Commercial name                          : Dolby Digital Plus
( b. S) h( q- L) RFormat profile                           : Blu-ray Disc
9 y" E7 A" L, ^7 V( }Codec ID                                 : A_EAC3
3 w# v/ S' I1 iDuration                                 : 1 h 41 min. I4 S0 z0 C# i' Y; b/ N1 t
Bit rate mode                            : Constant
- f7 g8 T+ T8 _8 A$ zBit rate                                 : 768 kb/s
6 x. W' w, l' aChannel(s)                               : 8 channels$ c) y$ B" G: x/ P: M& V
Channel layout                           : L R C LFE Ls Rs Lb Rb7 z1 I# S) I8 c
Sampling rate                            : 48.0 kHz3 |. |! o. K2 x! T6 H6 ~2 G/ r
Frame rate                               : 31.250 FPS (1536 SPF)' f. |. f, `4 W4 y, W, Y9 I- l
Compression mode                         : Lossy
' o; `: l' T+ {# _Stream size                              : 557 MiB (3%)
# M$ b; l& r$ c5 E5 O1 T9 a, BTitle                                    : DDP 7.1
/ Q, k: z0 A; ~2 ?- |, x3 e8 ELanguage                                 : Italian
. R5 L) A0 ?( O+ m& Q3 _2 X& a1 LService kind                             : Complete Main) V+ n- u1 N. W. b& }4 Z: Q/ T
Default                                  : No) o2 `3 c+ O. n( Q
Forced                                   : No2 A* W( h; E/ N7 h2 T+ x
Audio #7( u* v( t0 a+ ^" O$ G& L
ID                                       : 8/ n/ q7 ?: l! Z) f8 r
ID in the original source medium         : 4358 (0x1106)
1 e& _0 }6 t' T6 N) Z& DFormat                                   : AC-3
5 R' d; I+ k/ D+ ZFormat/Info                              : Audio Coding 3
5 l4 l. t3 q7 o: nCommercial name                          : Dolby Digital6 ]' h; W$ r4 }$ H/ p3 V, m" M- O
Codec ID                                 : A_AC3
8 ]. E3 _1 M( b3 N+ cDuration                                 : 1 h 41 min% _) _5 E( d5 c" G" ^
Bit rate mode                            : Constant2 m( }# [* I& T! J+ W
Bit rate                                 : 640 kb/s
4 `. y7 O0 E! h9 u7 p* M/ Y8 xChannel(s)                               : 6 channels) r6 Y. K* u8 F: s9 p
Channel layout                           : L R C LFE Ls Rs1 e1 }9 \) z! Y
Sampling rate                            : 48.0 kHz
' y" \/ Z8 e4 JFrame rate                               : 31.250 FPS (1536 SPF)( O6 q4 Y7 l' [4 A. B& Q
Compression mode                         : Lossy! N' y4 x. \% Y; v! I" C3 B/ Z0 y& ]
Stream size                              : 464 MiB (2%)! Y4 }$ h4 ]0 V: w9 a0 ]
Title                                    : DD 5.18 m/ L) P2 ]# }) b' Q1 o& a& Z
Language                                 : Turkish; o& s$ C7 M1 t, [. X
Service kind                             : Complete Main2 J1 d6 h2 A, N/ M1 N  `
Default                                  : No
* B- w7 g4 S; |Forced                                   : No; T: }% D7 L. `% M" c9 V+ r
Original source medium                   : Blu-ray
, q  W& w0 Y/ m( u1 j  OAudio #8
; i' T  L2 p: TID                                       : 92 ?# c# _* U0 y5 l7 n( y
Format                                   : E-AC-3
! c: H6 v' Q; dFormat/Info                              : Enhanced AC-39 Y: D0 `# o% |8 ^% j
Commercial name                          : Dolby Digital Plus
' h* \: s5 H, j: X9 t$ XFormat profile                           : Blu-ray Disc
4 ?( n2 D; m, z" ~1 TCodec ID                                 : A_EAC3, a6 t( ^" U. J* q: G7 O. r" Y* c
Duration                                 : 1 h 41 min) Y) Y: S% B# |: j5 A$ }
Bit rate mode                            : Constant3 J& ~9 u( [9 ~
Bit rate                                 : 768 kb/s
* }3 b& ~. C* ?6 W- xChannel(s)                               : 8 channels, J( V" x5 b/ u' t  i' ~
Channel layout                           : L R C LFE Ls Rs Lb Rb: H; D0 n8 Q3 w# b; @( ]
Sampling rate                            : 48.0 kHz
" W  S3 K' X  wFrame rate                               : 31.250 FPS (1536 SPF)
7 v& p) n7 O) t' wCompression mode                         : Lossy; U" @. V8 N6 H8 [. {
Stream size                              : 557 MiB (3%): g: n# T$ o( ?+ c& d: s
Title                                    : DDP 7.1
' F; g' L9 T/ i* |1 v1 d3 `Language                                 : Spanish
  c- f+ \! B; w* ^- vService kind                             : Complete Main
5 h$ L* d! @4 v( T! \) yDefault                                  : No( o/ P5 Q2 b8 f+ d
Forced                                   : No, J, l& D  G) t8 A6 o. O$ c
Audio #9
" h  v- j5 ]/ @0 Y5 f! LID                                       : 10
  }7 H" @2 y' b' WFormat                                   : E-AC-34 a; W& K% E7 s8 G2 [! ~& I( X% j& j
Format/Info                              : Enhanced AC-3& n! X" V/ B8 v0 h3 L  I0 ]
Commercial name                          : Dolby Digital Plus
% u0 {& }0 ?4 {' R: s+ ?8 b; pFormat profile                           : Blu-ray Disc7 d) E( v3 {3 W6 J% q: k
Codec ID                                 : A_EAC3! P( H1 a9 _% s5 b7 @' I
Duration                                 : 1 h 41 min* {1 y  `- U! z7 g' x0 w/ |5 g5 Y
Bit rate mode                            : Constant7 P1 Q& B5 J  g* O1 h( k
Bit rate                                 : 768 kb/s& ]9 w- l/ E- ^1 z) Y3 t
Channel(s)                               : 8 channels
* P" V3 K* Y9 _. h5 ^) i$ ~$ Z) AChannel layout                           : L R C LFE Ls Rs Lb Rb- a0 G7 e' e  \* k- b) y3 B  A
Sampling rate                            : 48.0 kHz
6 |  J) o2 `+ s1 y' BFrame rate                               : 31.250 FPS (1536 SPF)4 _; p/ n0 m: V: ?
Compression mode                         : Lossy
' T- p& s& c5 \8 Q$ OStream size                              : 557 MiB (3%)
- L( {4 |% |8 c8 i% GTitle                                    : DDP 7.1# A. G/ M( M) c. F% \7 z" A/ n! V- p
Language                                 : French2 P% T: b5 a/ S; W6 E
Service kind                             : Complete Main
  k0 _. ]: e- d* @5 e6 j0 f6 y+ u! CDefault                                  : No, h8 h" J- a3 W0 b! k2 r
Forced                                   : No
3 Y" O( n3 a% qAudio #10& t" e* v7 Z6 X
ID                                       : 11% P9 l% ~9 h3 o. H2 O
ID in the original source medium         : 4360 (0x1108)
7 P  ?* _0 r6 \Format                                   : AC-35 K# l' Q5 o1 u. f2 S, y
Format/Info                              : Audio Coding 3
' }9 G! y& U5 v+ q' pCommercial name                          : Dolby Digital) r" U! R6 u# ?6 ~
Codec ID                                 : A_AC3
3 q3 F( U+ V# }) A! SDuration                                 : 1 h 41 min- N/ x) a' j0 o+ k3 s
Bit rate mode                            : Constant; q' i/ L  L7 z
Bit rate                                 : 448 kb/s
! E+ W7 ^# ~0 vChannel(s)                               : 6 channels: ~/ p3 o& ]2 G/ W. U8 W
Channel layout                           : L R C LFE Ls Rs: R) b+ F' z" K; x
Sampling rate                            : 48.0 kHz! I& t& a& q8 e3 v4 j
Frame rate                               : 31.250 FPS (1536 SPF)
$ a* G# J' @( t4 b5 _Compression mode                         : Lossy7 V- h/ ?' o2 [% s
Stream size                              : 325 MiB (2%)" O7 ?' }& J  Y! Z: I! M
Title                                    : DD 5.1
5 O5 ]9 O; M( |Language                                 : French" H& o7 J+ p0 Q# D8 v' z' h
Service kind                             : Complete Main! w; `" e1 Q. u& p6 D8 W
Default                                  : No
# M3 o7 A. ?. @! U3 _Forced                                   : No5 q( @% f! |- B3 Q$ R2 d
Original source medium                   : Blu-ray
( w$ |& N6 s9 h) PText #1
  ^/ R  z5 y; @0 j& V+ @8 T9 mID                                       : 12
/ r7 p7 L# l; q( MFormat                                   : PGS# I. ]: k4 d; y% P& a- y5 ]
Muxing mode                              : zlib/ V2 p- S* N! j
Codec ID                                 : S_HDMV/PGS
8 d8 r$ v+ d8 sCodec ID/Info                            : Picture based subtitle format used on BDs/HD-DVDs' p0 m, r0 A3 [
Duration                                 : 1 h 32 min
3 N0 K& M" o2 ABit rate                                 : 71.7 kb/s
/ @/ F) T5 u2 ^; `% L: {5 HFrame rate                               : 0.675 FPS8 P7 x' z, q9 F0 X, t0 |2 o2 I
Count of elements                        : 3752: ~& G8 Z! L+ l. b* @% Y. v+ O
Stream size                              : 47.5 MiB (0%)
6 j" T( a# |0 S6 P/ _Language                                 : English! @+ e6 G% T+ ^8 P5 Q
Default                                  : Yes
: q* G' L* B5 a) R$ [0 Q, AForced                                   : No7 [' K4 T/ C2 d4 a8 B2 v; ~# ^
Text #2, o- J1 j- A% m! y0 w* v# q
ID                                       : 13
' z5 y2 O( a3 Z& [$ i# I, G2 yID in the original source medium         : 4609 (0x1201)4 ?; G6 }. O: S6 h7 v
Format                                   : PGS
6 _  A; L( R* q3 \7 aMuxing mode                              : zlib9 j5 j) D) Z( C, o. |5 K5 x
Codec ID                                 : S_HDMV/PGS" j: C+ d; @, L0 |3 L
Codec ID/Info                            : Picture based subtitle format used on BDs/HD-DVDs' \. P2 o3 M* Z5 ^; r* _3 j$ C1 g
Duration                                 : 1 h 34 min/ M2 D' G* L, m7 M+ k: E0 l- {! h
Bit rate                                 : 243 b/s
# k% v9 H9 Y( JFrame rate                               : 0.002 FPS- B- }, J5 ~% X( a: S/ y2 D
Count of elements                        : 148 l3 I. W: T- y
Stream size                              : 169 KiB (0%)! J; X7 C; |9 @" ^* Y, ]7 O
Language                                 : German
2 B3 S3 I/ s# t2 `+ Z: J2 O# M' d" FDefault                                  : No6 C. _$ }; Q! G) T3 L
Forced                                   : No
- D! u/ ~* Z; \1 f4 JOriginal source medium                   : Blu-ray
) y& k( {0 ^7 fText #38 a! j0 N' Z: i5 r3 s3 m/ J" ^8 M
ID                                       : 14
, ?5 k/ s& p1 E$ I. lID in the original source medium         : 4610 (0x1202)
6 F5 j* `9 I. c! Q- `Format                                   : PGS
  q" e; _) p9 M& t1 sMuxing mode                              : zlib( H: j9 b' _4 q5 C) _+ ]4 d
Codec ID                                 : S_HDMV/PGS
0 N/ N' k- c. r0 v) ?( ECodec ID/Info                            : Picture based subtitle format used on BDs/HD-DVDs; e/ s" T# _, ^' D9 @
Duration                                 : 1 h 40 min
5 {3 X5 Z( N, iBit rate                                 : 35.0 kb/s
! |1 Q7 s1 r2 }: X1 fFrame rate                               : 0.385 FPS9 _2 A- k2 t3 K* E. R0 r
Count of elements                        : 2324
; J* n! v8 a. A  B: k; IStream size                              : 25.2 MiB (0%), ?; ~: `& S9 u" K, F# u
Language                                 : German
8 m; Q; y! t' jDefault                                  : No
/ V" U/ Y$ Q$ X$ U0 f+ }+ fForced                                   : No! I, C/ i% U' H! F; h" k3 D
3d-plane                                 : 13 x" c' @0 O) e  ~1 g
Original source medium                   : Blu-ray0 X" J: M) R: M& z0 D* ]
Text #4* x' V; \, S# @& d2 Y- n9 A
ID                                       : 15
. o  X- t1 q! U3 t1 kID in the original source medium         : 4611 (0x1203)
* U  f9 ?  F$ a1 Z! XFormat                                   : PGS9 }6 |, P5 c# G$ r, w
Muxing mode                              : zlib6 |1 P4 l: J' }) C5 F
Codec ID                                 : S_HDMV/PGS
: }& S" l" p& ~0 K; [5 b6 }Codec ID/Info                            : Picture based subtitle format used on BDs/HD-DVDs( |% x% W( J0 y" F* S
Duration                                 : 1 h 34 min
4 y$ `, z: m, K( b8 C, |5 jBit rate                                 : 165 b/s
+ p6 J+ U8 P4 m$ sFrame rate                               : 0.002 FPS; c. c% r+ e$ X: {5 N; M
Count of elements                        : 122 |: A" K$ d9 G& y3 a
Stream size                              : 115 KiB (0%)- {; [/ b( W( c7 [4 t+ z8 T% y
Language                                 : Italian
4 l5 G6 w! d( Y3 `' B7 f. SDefault                                  : No
  Q9 V! X$ R" K! V" |! n' PForced                                   : No
, u6 A$ V: q! _% t5 z7 mOriginal source medium                   : Blu-ray
# s& O8 w' S7 VText #5
7 {3 T- I1 t8 g7 x* ?ID                                       : 16
. x4 s" [$ Z% v; c4 tID in the original source medium         : 4612 (0x1204)4 h3 g+ }6 r& T9 t" n( r
Format                                   : PGS, i' h* {* p( Q5 e: N
Muxing mode                              : zlib1 A! u9 g! _. Z% b$ j- Z
Codec ID                                 : S_HDMV/PGS- u9 m" b' {( }% r
Codec ID/Info                            : Picture based subtitle format used on BDs/HD-DVDs
+ p% |! U6 j5 c& ^+ H8 TDuration                                 : 1 h 40 min& g% `5 f" B! n5 ?: s# T
Bit rate                                 : 34.9 kb/s
, A4 T2 W5 ?6 P0 CFrame rate                               : 0.419 FPS9 t8 r0 Y) h6 o) K& @% I+ r
Count of elements                        : 2524) D: a2 O( |  L8 b1 J
Stream size                              : 25.1 MiB (0%)* B( q+ {7 c% e4 B
Language                                 : Italian. p2 {# m) e$ {! [7 C
Default                                  : No* [* U' |' I- R; p6 a5 m
Forced                                   : No5 B2 R; z1 u, }( n) B8 Z
Original source medium                   : Blu-ray
1 ~5 O, a/ r6 g2 \+ j5 q) V9 fText #6
. L3 B/ \. J% \- w7 C; wID                                       : 17; y1 i9 h! G3 L: U: Q
ID in the original source medium         : 4613 (0x1205)
' Y( w4 i  p! J. p% C+ F# `4 YFormat                                   : PGS
6 N' [2 }1 G( \% Q1 eMuxing mode                              : zlib- f( j$ }" \) L) C5 x9 h% G
Codec ID                                 : S_HDMV/PGS
0 C5 P; X8 e- O- u2 M% x& \Codec ID/Info                            : Picture based subtitle format used on BDs/HD-DVDs
0 q  `6 B, S. B8 }& F; K2 d/ @Duration                                 : 1 h 34 min
( j; o3 T7 n: C( DBit rate                                 : 302 b/s
. q6 _; v0 l6 b6 X1 X' l3 [9 y6 OFrame rate                               : 0.004 FPS' b5 S) V" A( W; B6 L
Count of elements                        : 24
- y* i8 F. w- m. T* X( sStream size                              : 210 KiB (0%)
+ `  S& y4 ~' v- u% K7 LLanguage                                 : Turkish* H! \' W2 C2 [$ x
Default                                  : No
, y  u, h) `: T. F) s; ]6 XForced                                   : No
9 g+ e" p2 n4 f! o5 {Original source medium                   : Blu-ray! y6 f" T6 g" U4 _1 S; S
Text #7
1 n2 @8 D; |/ ]' G0 _. f4 n$ KID                                       : 18
7 S* u0 _. u& g; C; J! gID in the original source medium         : 4614 (0x1206)
- U) o% G) w- QFormat                                   : PGS. a% D: W, m. ^
Muxing mode                              : zlib
" }- P. i# A1 |! i2 q4 M6 u* RCodec ID                                 : S_HDMV/PGS' q0 W" E& P1 J4 u
Codec ID/Info                            : Picture based subtitle format used on BDs/HD-DVDs% h  j0 Z* l! B
Duration                                 : 1 h 40 min
4 r. [* D9 Y# D; pBit rate                                 : 35.7 kb/s7 r( x' f3 X' t9 Y. n2 Z
Frame rate                               : 0.464 FPS+ ^7 S: P! W9 c, C0 I
Count of elements                        : 2800
3 h/ ?6 ^% E$ BStream size                              : 25.7 MiB (0%)* n5 }5 N' c! M4 v0 x2 j  N2 ?
Language                                 : Turkish" ]; p- m# i1 L3 v4 X# F
Default                                  : No
& z$ Y$ [2 o/ V4 i+ b+ w$ ?4 U( uForced                                   : No3 ~& }7 o  p/ C- f8 \/ S" u$ c
Original source medium                   : Blu-ray
! `/ K# C' B* i( `& HText #84 w/ o- ]0 Z1 u9 O4 v
ID                                       : 19. J9 B% O1 T- L$ E
ID in the original source medium         : 4615 (0x1207)# R" e  t9 N1 ^8 z/ k  B: o" f6 P
Format                                   : PGS# ]4 R  A  g; q+ n% H+ U( ^
Muxing mode                              : zlib; r4 e8 X' G% u- _3 ]
Codec ID                                 : S_HDMV/PGS8 l( J  S/ d1 h8 r6 {
Codec ID/Info                            : Picture based subtitle format used on BDs/HD-DVDs
+ Y6 G" P; ^+ \6 Q" i& `2 v5 _, CDuration                                 : 1 h 34 min
" I4 o( z/ ~; }& y; ^Bit rate                                 : 390 b/s
9 o# j, `* h" O# ^& vFrame rate                               : 0.005 FPS
+ l1 @) t7 Q5 s& B6 E, eCount of elements                        : 26
3 P8 p5 V, Y3 W" Y  x! a! ?7 QStream size                              : 272 KiB (0%)
" C9 O0 |* Z3 _( h% f- _& ~3 v; w. XLanguage                                 : Spanish
2 F$ E  |+ D- d: o. rDefault                                  : No
0 b; b. J2 r  ]Forced                                   : No
: _' J/ {# Q5 c( ?6 nOriginal source medium                   : Blu-ray
5 D, v' s0 ?) \. ^9 a5 o1 _Text #9' [/ \. A2 N7 E  R0 @0 ~1 B" I
ID                                       : 201 H! F9 ~, ^' X1 c
ID in the original source medium         : 4616 (0x1208)0 `, x& D$ `8 @9 i& @
Format                                   : PGS
" w/ Z5 m" }4 E3 GMuxing mode                              : zlib
; ?& @& v- ]8 W. fCodec ID                                 : S_HDMV/PGS, C, `% P: o2 V) x; g8 ?8 j8 N. k. r
Codec ID/Info                            : Picture based subtitle format used on BDs/HD-DVDs
1 C9 q: g- T  c7 d9 fDuration                                 : 1 h 40 min1 i& X: ?/ L6 L$ _
Bit rate                                 : 35.0 kb/s6 g/ x  N" V/ b- ^3 A$ j3 e' A
Frame rate                               : 0.463 FPS' {+ ~/ B8 [- W  E6 ]9 B, m0 K% B# t
Count of elements                        : 2794
, {# m: _2 e6 i5 F2 iStream size                              : 25.2 MiB (0%)
- R8 y& a( C& U8 K, O' r* F4 cLanguage                                 : Spanish7 X* I; [7 L. B* ?& v* X
Default                                  : No
! q& m3 A6 u, _/ I# n3 s9 n: OForced                                   : No3 B5 G7 J+ b* @; V3 G
Original source medium                   : Blu-ray
4 j( O: _2 V+ a* G4 r" [Text #10
/ G) A) t% k* K( D4 y# y  N1 DID                                       : 21) l3 o2 z; E& M2 b# L
ID in the original source medium         : 4617 (0x1209)- J% ~5 ^& O* @( [3 J4 F
Format                                   : PGS+ S, G6 \( G  x; O3 C/ u( y( ~" |
Muxing mode                              : zlib; K; t  j6 b% {( s, @; g0 }
Codec ID                                 : S_HDMV/PGS
8 C+ ?1 V. J* J, hCodec ID/Info                            : Picture based subtitle format used on BDs/HD-DVDs3 D# I- ?! y3 L7 e, x
Duration                                 : 1 h 36 min
- ~3 P+ }# T# G: Y  oBit rate                                 : 542 b/s+ S- u3 q8 E& ]6 Q1 \) W6 {
Frame rate                               : 0.006 FPS, c' z# d: g4 C# h
Count of elements                        : 345 U2 w  c" L, M5 \& j3 E
Stream size                              : 385 KiB (0%); _. ~6 ?' H- h; k; x6 j
Language                                 : French; a0 g3 x+ y: Q3 m
Default                                  : No
% s4 T; X- K7 z2 n! L* {* tForced                                   : No5 k$ l# G: |1 ?  L! i8 T& c3 k/ @
Original source medium                   : Blu-ray( x' |  n) `2 V# [- s( F- p+ `
Text #11+ U& s6 T( o4 p  N5 {. Q
ID                                       : 223 _# T/ q% Z3 m6 N( s6 }5 o
ID in the original source medium         : 4618 (0x120A)
5 l4 M! k( p1 l  s- X) R$ z3 U5 O/ mFormat                                   : PGS6 [. P' Q: A5 m, x
Muxing mode                              : zlib
/ o3 E2 l! L/ Y( ]Codec ID                                 : S_HDMV/PGS
; `$ y0 M# }& j; ICodec ID/Info                            : Picture based subtitle format used on BDs/HD-DVDs
. k: q6 S4 [! Y2 _4 |) e) m7 u' sDuration                                 : 1 h 40 min. M) [1 U3 d0 p& V# V
Bit rate                                 : 36.6 kb/s9 ^* I/ d' k% m+ F) F0 v3 z
Frame rate                               : 0.462 FPS* P8 h, [6 n6 l# k+ y2 E
Count of elements                        : 27845 h5 |3 J. x% _( X
Stream size                              : 26.3 MiB (0%)
% ^3 t- A: L0 g2 P# _$ }Language                                 : French
9 v/ x% ~* D: C3 O' n& ?. i& R8 VDefault                                  : No
! B5 D: ^- y/ K  P2 hForced                                   : No
& z# s+ f4 V4 t( eOriginal source medium                   : Blu-ray, g0 A! S4 X6 [; Z* x6 r
Text #12
. k( g" Z" p( ~6 @ID                                       : 23
, K% M% \- G% J* w3 TID in the original source medium         : 4619 (0x120B)" N3 H0 x2 {# e& q( _) n5 v1 _
Format                                   : PGS2 `9 k) d6 S$ C2 _7 S
Muxing mode                              : zlib
% N5 p- v7 g1 j4 ?Codec ID                                 : S_HDMV/PGS( \' m- l8 t8 F) o- v
Codec ID/Info                            : Picture based subtitle format used on BDs/HD-DVDs8 ]7 m& _8 Y: @7 ~) J3 _7 k
Duration                                 : 1 h 40 min
, u1 E, K7 B, {; G; n  I# gBit rate                                 : 30.7 kb/s4 u8 m2 I& u! b. _% ~9 i
Frame rate                               : 0.307 FPS
, \: F! y, Q( f2 g2 r/ u7 WCount of elements                        : 1852
7 {4 E" N& {$ rStream size                              : 22.1 MiB (0%)+ ?  M) _7 r( ?$ W$ a. [
Language                                 : Dutch
( B5 _9 o6 r+ i3 ODefault                                  : No7 R. X$ H5 S6 y4 i& `8 N$ }$ E. `
Forced                                   : No
  M: z6 H3 O( ?+ _- G1 }Original source medium                   : Blu-ray
" d- S$ |; U3 ?6 F3 ZText #13/ [) ]( S% V) }9 l0 R" N1 a* K
ID                                       : 24
8 i8 O& _8 M3 o$ ^5 o$ m2 ^ID in the original source medium         : 4620 (0x120C)
4 Y) [8 j& y4 J# N; N# ?0 C- KFormat                                   : PGS; h( U) d7 z) k# R) N
Muxing mode                              : zlib+ ^: r* l" \  [; ~
Codec ID                                 : S_HDMV/PGS
, ^1 s( h0 `. u$ `; OCodec ID/Info                            : Picture based subtitle format used on BDs/HD-DVDs
( G+ L0 ~+ a% \! c( D* c8 u7 hDuration                                 : 1 h 40 min$ J4 {9 }0 h1 G& W* F+ s
Bit rate                                 : 31.0 kb/s
9 S; t/ N9 B$ _! w" ZFrame rate                               : 0.307 FPS; j. C3 @8 Z7 H/ }2 R
Count of elements                        : 1852
) J- z+ ]# D! T( @: O% dStream size                              : 22.3 MiB (0%)8 o5 _! L) h1 I6 i. V1 L3 v0 W
Language                                 : Danish
( w1 K5 a- L, O6 z- D1 GDefault                                  : No* u- B5 {1 _4 ~, V; R  ~) B' P4 T
Forced                                   : No
# M2 S* i" v4 P# z0 \% EOriginal source medium                   : Blu-ray$ ^+ E; ^( l  c5 B) O: L( z( t
Text #149 O3 `: e9 r0 Z( N) T6 i
ID                                       : 25
2 ^, t1 a+ R/ I& d/ |ID in the original source medium         : 4621 (0x120D)* v2 `. |( u2 h5 f# P) X
Format                                   : PGS
6 X6 r! W2 u9 ?2 [Muxing mode                              : zlib. O- o1 Y9 P* f9 A$ [; c
Codec ID                                 : S_HDMV/PGS' p. @9 r* d  \! P1 v, K
Codec ID/Info                            : Picture based subtitle format used on BDs/HD-DVDs, S6 H/ G2 @$ \% i* h6 L5 K# G
Duration                                 : 1 h 40 min
. M8 z; m9 L7 r7 B6 u+ T- [9 d, B8 ^Bit rate                                 : 29.0 kb/s: v) {/ @+ }. P6 m7 F
Frame rate                               : 0.372 FPS1 ~& a  h) l$ v
Count of elements                        : 2243
0 m7 Y8 X7 S( ]% gStream size                              : 20.8 MiB (0%)( }( I  p1 D# ]: M/ J, v
Language                                 : Finnish$ A- |" @) d0 D9 z; |
Default                                  : No
& k) g' Q- ]4 v# T$ g' O5 H: h8 Q) LForced                                   : No) j% X4 n: }& R3 V1 E
Original source medium                   : Blu-ray
! G  C$ L) Y- ~, hText #15
# ~8 C3 K  ]8 i: h( qID                                       : 261 Y! [6 {. [2 d+ D: z. I0 u
ID in the original source medium         : 4622 (0x120E)# Q9 L- g% ]( ]
Format                                   : PGS( J2 H/ M! V( G9 l5 m- S4 l% v0 n
Muxing mode                              : zlib4 \4 Y3 m& }# B3 G! ^  X
Codec ID                                 : S_HDMV/PGS! D' [/ D1 O0 q7 b5 ]; r8 h2 \
Codec ID/Info                            : Picture based subtitle format used on BDs/HD-DVDs( o; M7 b& [' T
Duration                                 : 1 h 40 min6 J# F5 q8 r; \9 S4 L
Bit rate                                 : 33.7 kb/s+ @3 b1 u+ c6 e0 ~
Frame rate                               : 0.463 FPS. k7 _" k; p7 ]! U! ]5 R
Count of elements                        : 2790: _1 T0 C; ~* m
Stream size                              : 24.2 MiB (0%)
3 B1 M% ^! H' r( w/ ELanguage                                 : Norwegian3 t; o  A+ f3 m0 w+ B; `# _
Default                                  : No+ D- b2 P( y; `4 `' U3 O; }+ {
Forced                                   : No
( n; u$ d0 Y8 IOriginal source medium                   : Blu-ray
- ^6 m$ Z0 f6 Y2 H  zText #16) p- J/ N& m1 D0 x4 r& P/ u
ID                                       : 27( t; y. C4 c& M; ?6 O
ID in the original source medium         : 4623 (0x120F)& H- P- _  P$ Q* j! ^! G* \
Format                                   : PGS1 N0 `5 x8 T7 Y: S+ F, r
Muxing mode                              : zlib
6 h: ]# O5 G6 [' U9 w- q& k1 _3 jCodec ID                                 : S_HDMV/PGS
$ F3 A- M8 i1 B" U0 p0 z: I, f: lCodec ID/Info                            : Picture based subtitle format used on BDs/HD-DVDs* h% n; Z5 ]# J
Duration                                 : 1 h 40 min; a$ Q7 x1 d4 @: E! r
Bit rate                                 : 30.3 kb/s
. G5 |5 I" z9 ~. e/ e/ k: R: u8 \Frame rate                               : 0.317 FPS
. v8 ^( c+ e! s$ s7 h# b1 jCount of elements                        : 1913
  f- Y- t( {* K- o9 O# sStream size                              : 21.7 MiB (0%)
0 S6 o  q8 ?) oLanguage                                 : Swedish9 {8 y* D4 o- @' B1 s) C8 R' D
Default                                  : No; Y8 L5 A! d+ W
Forced                                   : No0 W2 t: B9 X4 g5 p0 I( ^7 \
Original source medium                   : Blu-ray/ W, x8 J+ c3 c$ K) V
Text #17" w" l+ N/ o5 Z& _
ID                                       : 28
% Z+ x5 k% k, E/ B' d! P, IID in the original source medium         : 4624 (0x1210)4 `8 }& o/ O. x6 i! Z4 |$ C! F
Format                                   : PGS" W# ?& _! T8 u8 e
Muxing mode                              : zlib3 T. J5 D: o$ D* c8 l
Codec ID                                 : S_HDMV/PGS
; M7 d5 n+ z  P  `/ c  ?5 o. nCodec ID/Info                            : Picture based subtitle format used on BDs/HD-DVDs
% x5 k; n3 `2 }& A5 v- k6 mDuration                                 : 1 h 40 min+ y3 ]' ?1 k2 o, \1 X& x( B
Bit rate                                 : 19.0 kb/s
) R) a& s) n7 DFrame rate                               : 0.458 FPS4 [& \* ]4 f7 E  E
Count of elements                        : 2762$ z$ e3 I* m1 K  E  V
Stream size                              : 13.7 MiB (0%)# A8 j8 J% e' W% V! H
Language                                 : Arabic- B( P& I! r) S0 V4 p- q- b
Default                                  : No
' P4 z! S; ^+ Y4 a2 J2 CForced                                   : No
8 x* V* k; e4 W* ?Original source medium                   : Blu-ray
) a& u0 m5 U2 LText #18
2 d1 b0 z8 Y+ _9 T. }0 r8 k6 FID                                       : 29
3 M( M9 \# `7 q; r7 L7 `6 G# pID in the original source medium         : 4625 (0x1211)
1 W5 v% D9 V5 }) Y- R  _) a' }Format                                   : PGS
7 M) ^" ^/ S/ \Muxing mode                              : zlib
4 H. F' C% B8 ?& a) s! y4 _  LCodec ID                                 : S_HDMV/PGS7 q1 }0 a. b- Y4 F5 x! u* f
Codec ID/Info                            : Picture based subtitle format used on BDs/HD-DVDs/ p2 M5 w  h, S- \' _
Duration                                 : 1 h 40 min
- f3 b2 g; I# h7 B. z* u0 }Bit rate                                 : 37.2 kb/s' _( b" F4 h/ l" S) l5 I0 V
Frame rate                               : 0.467 FPS7 `7 K3 ]5 h% A" B! v' g
Count of elements                        : 2818" ^* d+ q% m7 j, T6 t! j
Stream size                              : 26.7 MiB (0%)
' e; ]: U: \! N0 F4 z  d: mLanguage                                 : Icelandic* T- x. ~2 n" v4 E4 z
Default                                  : No( i! y0 E7 A+ p3 k) c
Forced                                   : No" b$ [1 R$ b6 K$ ?) e& V. u- T! v7 U
Original source medium                   : Blu-ray5 P; p8 G6 C% U3 N5 N0 R
Menu( E! x0 A' a6 }
00:00:00.000                             : en:Chapter 01
, k. T+ d3 ?' s/ a+ v: S% a9 }) i00:06:18.711                             : en:Chapter 02
, ?$ s% F0 Y0 D, L/ i00:11:56.132                             : en:Chapter 03$ j: l" Q4 U% ?' F
00:18:36.657                             : en:Chapter 04: N; a0 ^" [7 o) j4 O2 d% {3 i2 ]
00:22:00.861                             : en:Chapter 05% g+ j$ C! C9 S! w
00:29:29.559                             : en:Chapter 063 h7 F3 R/ h8 M' U
00:35:57.488                             : en:Chapter 07  e8 K6 x) T8 s: h6 N7 g
00:39:07.803                             : en:Chapter 089 ?2 @. w6 w- \/ r4 G
00:45:47.077                             : en:Chapter 09
( y( ~1 b5 ]3 f* S3 a00:48:28.238                             : en:Chapter 10
+ M! h$ U2 p# D; a/ c5 ^7 Q00:54:54.791                             : en:Chapter 11' I+ o6 U+ S" r2 F+ o9 |8 v
01:01:48.705                             : en:Chapter 127 m8 D4 Y  D9 j- x1 X& Z
01:04:54.473                             : en:Chapter 13; w  A) k5 o: K( c4 ?: y& t
01:09:45.055                             : en:Chapter 14
2 k% [/ q! g5 v6 Z01:14:56.950                             : en:Chapter 15
! M5 F: t+ ?& X/ H01:18:39.464                             : en:Chapter 16
7 j4 y+ I7 T& K! K& f' I01:23:37.262                             : en:Chapter 17
* G6 O: v& [! `( R, C" ?2 \01:30:01.312                             : en:Chapter 18

( G( A" V$ g" E# d4K321提示您 点击下方附件名称 即可开始下载, D; G6 ^. e8 |$ Z

, ^( a) A& j4 I% j9 J3 T/ P6 Z
2 ~8 g- C- F* k1 c+ r, n8 V
多版本下载时请注意区分+ B( ]: g  t& b/ F9 \9 `  n
' P# a% ^- c6 e) J& ?* W
: _/ |1 G/ q6 p- J
多力特的奇幻冒险 Dolittle.2020.1080p.3D.BluRay.x264.TrueHD.7.1.Atmos-3D原盘电影下载1 A* d4 z2 b5 T0 `; n7 E
# m- \* W3 E2 j2 z
多力特的奇幻冒险 Dolittle.2020.1080p.3D.BluRay.Half-SBS.x264.TrueHD.7.1.Atmos-FGT 19.47GB9 t4 Z! @9 h. r/ @' {

Dolittle.2020.1080p.3D.BluRay.Half-SBS.x264.TrueHD.7.1.Atmos-FGT.torrent ( 24.98 KB )

- [: F' y( l$ w1 ^
. n8 s7 |' n! [8 {; |4 C1 n
多力特的奇幻冒险 Dolittle.2020.1080p.3D.BluRay.Half-OU.x264.DTS-HD.MA.7.1-FGT 20.24GB( c) I3 E0 L. U6 Z" @0 r! p9 U

Dolittle.2020.1080p.3D.BluRay.Half-OU.x264.DTS-HD.MA.7.1-FGT.torrent ( 25.95 KB )


, I; |$ L- _" l3 o" k+ W5 f/ \9 m: C* @; R1 m* }
多力特的奇幻冒险 Dolittle.2020.1080p.3D.BluRay.Half-OU.x264.TrueHD.7.1.Atmos-FGT 19.87GB
! L+ ^. r2 H$ ^

Dolittle.2020.1080p.3D.BluRay.Half-OU.x264.TrueHD.7.1.Atmos-FGT.torrent ( 25.49 KB )


; n4 B! i- H- ~  f  r6 j" t# k8 H  s# ?4 W+ w: c
回复

使用道具 举报

全部回复2 显示全部楼层
xihong手机认证 发表于 2023-11-2 08:14:34 | 显示全部楼层
多力特的奇幻冒险,这个影片我没有看过,不过有点好奇瓣评分:5.7分。
回复 支持 反对

使用道具 举报

jayden3618手机认证 发表于 2024-2-5 13:06:07 | 显示全部楼层
谢谢分享
$ A8 L0 d  w# R2 n0 C5 `
回复

使用道具 举报

声明:您在社区发表的所有信息仅代表用户个人观点,与本网站立场无关,希望各位烧友理性发言,不发表违法国家法律禁止的话题。

您需要登录后才可以回帖 登录 | 立即注册

本版积分规则

联系客服 关注微信 下载APP 返回顶部 返回列表