开启左侧

奇异博士2:疯狂多元宇宙 Doctor.Strange.in.the.Multiverse.of.Madness.2022.1080p.3D.BluRa.x264.DTS-HD.MA.7.1-3D原盘电影下载

小山雀 发表于 2023-3-10 13:52:22 | 显示全部楼层 |阅读模式
奇异博士2:疯狂多元宇宙 豆瓣评分: 6.3分
年代:2022年上映
片长:126分钟
类型:动作 恐怖 科幻 奇幻 冒险 
导演:山姆·雷米
主演:本尼迪克特·康伯巴奇 / 伊丽莎白·奥尔森 / 切瓦特·埃加福 / 本尼迪克特·王 / 索契尔·戈麦斯
3 D 格式:half-ou sbs 

封装音轨:DTS-HD.MA 7.1 Dolby TrueHD 7.1 
简       介  J- k3 V3 p; X/ J" O2 _) j
+ H2 T2 m3 |- |- D: `1 f
  充满无限未知的疯狂多元宇宙即将展开,一切皆有可能。
: c0 M/ Q' W% |5 q. s/ t
. t% s$ p9 r. t& p& Z1 W2 \# u( @影片参数: L+ A6 }, Z. L
Video- F; k/ ^' d" o3 A2 E' p* ^
ID                                       : 1
9 v3 q2 y+ ^* }5 R$ k3 uFormat                                   : AVC8 y& X$ T, }- C, f
Format/Info                              : Advanced Video Codec
2 e$ m% f6 l( F$ z( hFormat profile                           : [email protected]
; {9 |2 G: H8 ~( Y- @0 Y4 IFormat settings                          : CABAC / 2 Ref Frames( L: J7 {  r( o, p9 |; j! m1 n" J
Format settings, CABAC                   : Yes
. U( _+ k5 D0 r2 L) t7 `+ C- QFormat settings, Reference frames        : 2 frames
8 [, \' y3 B- ?) B0 G1 F! PCodec ID                                 : V_MPEG4/ISO/AVC8 s* a4 s1 H( E/ p3 R: J/ n
Duration                                 : 2 h 6 min
& {, m* u' }7 XBit rate                                 : 14.7 Mb/s
; s# l; m8 n/ M, j* B! a+ ENominal bit rate                         : 16.0 Mb/s- K1 \! R1 U( C, g6 d: u7 L8 l- W
Width                                    : 1 920 pixels
( Z" U6 I+ N0 V; R4 |Height                                   : 1 080 pixels) A  v) ]; w0 F3 j
Display aspect ratio                     : 16:9( s8 I1 P% e4 b( O
Frame rate mode                          : Constant
& ^( B7 k3 w- A4 ^. vFrame rate                               : 23.976 (24000/1001/189150) FPS
! K- E7 {9 g2 j8 \# j' wColor space                              : YUV
7 B" c0 w9 s* w% f! TChroma subsampling                       : 4:2:01 n/ V" q  m1 _& w+ c, l* _5 i# V
Bit depth                                : 8 bits; t+ A! d, F. ~6 P/ I
Scan type                                : Progressive- D3 C3 @% x9 Z! j
Bits/(Pixel*Frame)                       : 0.296! y$ N% z% ]- }7 S
Stream size                              : 13.0 GiB (57%); f1 D. V, h+ ?
Writing library                          : x264 core 1481 _1 z. @  m4 t& M) R. C
Encoding settings                        : cabac=1 / ref=1 / deblock=1:-1:-1 / analyse=0x3:0 / me=hex / subme=5 / psy=0 / mixed_ref=0 / me_range=16 / chroma_me=1 / trellis=0 / 8x8dct=1 / cqm=0 / deadzone=21,11 / fast_pskip=0 / chroma_qp_offset=0 / threads=48 / lookahead_threads=8 / sliced_threads=0 / nr=0 / decimate=1 / interlaced=0 / bluray_compat=0 / constrained_intra=0 / bframes=2 / b_pyramid=0 / b_adapt=1 / b_bias=0 / direct=1 / weightb=0 / open_gop=0 / weightp=0 / keyint=24 / keyint_min=13 / scenecut=40 / intra_refresh=0 / rc_lookahead=24 / rc=cbr / mbtree=0 / bitrate=16000 / ratetol=1.0 / qcomp=0.60 / qpmin=0 / qpmax=69 / qpstep=4 / vbv_maxrate=16000 / vbv_bufsize=16000 / nal_hrd=none / filler=0 / ip_ratio=1.40 / pb_ratio=1.30 / aq=1:1.00; l  Y0 `# l2 I4 P: f( W3 `
Default                                  : Yes
& y* z3 Y8 N8 y, [" Q$ o- [Forced                                   : No2 k, q' Y1 V) t2 @5 M
Color range                              : Limited$ n! B" y/ u/ @
Color primaries                          : BT.709
0 }6 y8 K$ z6 B+ V. A. bTransfer characteristics                 : BT.709% u8 n, Q! R$ J7 L9 d, l1 \
Matrix coefficients                      : BT.709$ c5 e8 a2 X9 s& z6 B8 u2 u+ S. D
Audio #1
$ A5 d7 V0 y# J: E2 M- lID                                       : 2
8 B- o  }6 P) k& LFormat                                   : DTS XLL
! R) g+ h, {7 cFormat/Info                              : Digital Theater Systems9 s: }# X. H, N" d% ]' Q- I
Commercial name                          : DTS-HD Master Audio) V1 t: ^5 ]9 o1 t) ]: C+ S
Codec ID                                 : A_DTS6 n6 ^' V) k* Y, H# e
Duration                                 : 2 h 6 min6 J4 U$ O& H. h% [* |2 C3 Y
Bit rate mode                            : Variable
* b. t3 N7 d* c+ M+ Z) DBit rate                                 : 4 923 kb/s
- }" v6 j9 u8 k8 k# l" K; u- s2 r+ t1 \  nChannel(s)                               : 8 channels3 z1 K- c3 B9 }0 ~& D/ \5 N* v7 P
Channel layout                           : C L R LFE Lb Rb Lss Rss9 z; Q3 M* Q! O6 X
Sampling rate                            : 48.0 kHz& s, S  U5 m/ X% S8 u: G7 K3 {
Frame rate                               : 93.750 FPS (512 SPF)
# a( w7 d0 z) u+ ]0 @+ d. sBit depth                                : 24 bits# s( a$ N& {5 E0 h" g& N9 s
Compression mode                         : Lossless! P# n# e9 q3 v1 @7 v5 y: g, L+ Y
Stream size                              : 4.35 GiB (19%)
+ ?% l: e2 E2 `: g5 u5 L. ?: y$ RTitle                                    : DTS-HD MA 7.1
& B: A& b) h9 K9 r$ ]. D# HLanguage                                 : English( K3 K1 Y$ ~" E3 X2 J- A
Default                                  : Yes
6 ?" d2 T3 s; @! Y8 zForced                                   : No7 F3 c6 h+ d: y, [4 V. h
Audio #27 n# r/ d6 q9 ?+ H( @4 U
ID                                       : 34 z/ M2 N" l' g. P
Format                                   : E-AC-3$ q! _" v7 x$ Z. k/ w
Format/Info                              : Enhanced AC-3
5 i8 Z* X2 e! K* O9 VCommercial name                          : Dolby Digital Plus
3 x+ K5 d" N7 C8 WFormat profile                           : Blu-ray Disc/ J; ?4 O6 u  h  M5 l- R
Codec ID                                 : A_EAC3% E( u4 x  y8 I7 T( z3 D: r
Duration                                 : 2 h 6 min1 B2 M' }% X. G# N* g
Bit rate mode                            : Constant8 n/ v+ [6 c5 b0 {. i! h1 L: O, O5 n
Bit rate                                 : 1 024 kb/s
& O- v. G, d* R( X" nChannel(s)                               : 8 channels
  H6 Q, l2 |: \) J) Y; q, l& mChannel layout                           : L R C LFE Ls Rs Lb Rb
0 A  D, H# C1 R( n, }Sampling rate                            : 48.0 kHz
) k& i' W; V" N; vFrame rate                               : 31.250 FPS (1536 SPF)* n% u# K/ n5 [3 m5 h
Compression mode                         : Lossy
* |; c& R  {4 z5 d: P1 @2 r3 rStream size                              : 927 MiB (4%)$ X+ K8 n! W4 J
Title                                    : DDP 7.19 J: I6 w0 _. R9 H& p! l% Z2 I
Language                                 : French: {( ^, ^4 b' g7 M: m/ S. R$ P. v
Service kind                             : Complete Main
) I* h) a& |; l$ ^: h9 D7 n  cDefault                                  : No
% j9 z  {* x+ T$ I, U  p/ _2 O$ A3 UForced                                   : No
8 D4 C! c7 h. t9 d' j& p; }Audio #3
. `' B- z  C  K, ?  W: E9 pID                                       : 40 f" _, ]* j% g. ]( m' V* W' q
Format                                   : DTS
/ c4 A4 s$ o) T7 x4 t; ]4 m4 NFormat/Info                              : Digital Theater Systems
! z/ K! L6 r/ y1 z* @Codec ID                                 : A_DTS
, w7 `- M2 z7 A$ G$ b+ Z" C5 h1 GDuration                                 : 2 h 6 min- t5 {4 ~, E4 K1 J$ |" i
Bit rate mode                            : Constant/ y% O4 s: ?7 N
Bit rate                                 : 1 509 kb/s
- X6 t( g6 ^0 r$ E' SChannel(s)                               : 6 channels
& {  T7 }+ O3 n; D5 C1 rChannel layout                           : C L R Ls Rs LFE3 n2 O  O7 s! U7 S
Sampling rate                            : 48.0 kHz
. o0 }1 `% T/ K8 U: U9 N) KFrame rate                               : 93.750 FPS (512 SPF)
9 `8 @0 l9 X( o" |" Q8 QBit depth                                : 24 bits
* t/ W! r- P  _$ P6 uCompression mode                         : Lossy+ c$ {, o: B) l
Stream size                              : 1.33 GiB (6%)
" N8 K' s- A7 Z" o; r& ?* ?9 M1 m1 CTitle                                    : DTS 5.1
6 A1 l8 `- T$ Z1 x0 B1 CLanguage                                 : Spanish
! T1 H- }6 f" K$ j+ NDefault                                  : No- E- g6 F2 U7 M  P
Forced                                   : No3 e" }4 f2 G( u  i8 o3 ^* E
Audio #4) i$ y5 i9 E8 l
ID                                       : 5
+ ]' ~  y* k  Q. ^' KFormat                                   : E-AC-3
, ^( r' ]9 i8 X  ^" }Format/Info                              : Enhanced AC-3  v! `$ {& S# X: c
Commercial name                          : Dolby Digital Plus3 F2 |* k5 C% K* g: w  N
Format profile                           : Blu-ray Disc
& R2 s9 D; R( i( q9 [2 d6 }4 QCodec ID                                 : A_EAC39 t/ _9 V! {! U( b* O
Duration                                 : 2 h 6 min
9 O4 ?( `' Y' t0 q% t$ EBit rate mode                            : Constant
+ R0 Q1 {; F9 l9 W2 V$ PBit rate                                 : 1 024 kb/s' O5 |5 m% N# @6 [/ V+ A9 H
Channel(s)                               : 8 channels. k9 k/ H& A3 c, M
Channel layout                           : L R C LFE Ls Rs Lb Rb' m2 g* }' @( N" Z5 I
Sampling rate                            : 48.0 kHz1 B% n; L2 b0 P8 O5 I
Frame rate                               : 31.250 FPS (1536 SPF)
! y9 P, w2 S9 H+ M8 v8 {* Y; @; ICompression mode                         : Lossy
" l/ H) C; p( U1 _Stream size                              : 927 MiB (4%)  J* p; E2 J) g8 t5 ~5 ^$ f
Title                                    : DDP 7.1! h! S, a- s' L: [1 s
Language                                 : Italian
$ H, R! w3 [( o2 t9 J$ d* ZService kind                             : Complete Main7 v. ?! L+ F& H3 y
Default                                  : No
8 J  J2 k. P" [0 J- c5 V! \$ VForced                                   : No* c( C  f" e) |5 C
Audio #5
: h0 _# H- d- `( G, YID                                       : 6. y& A9 k, q8 v4 ]. |  d+ t: j
Format                                   : AC-3: ]0 a; F' G; Z; u8 J9 m1 {
Format/Info                              : Audio Coding 34 Z( d1 ~. B9 S) a/ g( P! R0 h
Commercial name                          : Dolby Digital
1 G3 w, g' l4 n. q- b, P4 N) XCodec ID                                 : A_AC3
1 R+ D/ F$ g3 ~6 tDuration                                 : 2 h 6 min+ Z" W9 J, z& _# O
Bit rate mode                            : Constant  L1 C4 a0 z2 c  w& k. l. K
Bit rate                                 : 576 kb/s
0 ~! v8 d" ^8 s/ W4 V( }, kChannel(s)                               : 6 channels
' `/ V1 I* G7 g1 C2 }$ D1 DChannel layout                           : L R C LFE Ls Rs
9 W2 B3 E) D5 dSampling rate                            : 48.0 kHz) e( n( V5 l, M
Frame rate                               : 31.250 FPS (1536 SPF)
( Q9 |5 ?9 \. _Compression mode                         : Lossy' ^5 }# j. [( O+ T
Stream size                              : 521 MiB (2%)2 t  _& ]5 D4 F1 P1 U% h
Title                                    : DD 5.1
4 ^& w9 H2 t  f% c' @! H5 l% {Language                                 : German1 y3 |1 ~# i* @8 N2 O; H9 j
Service kind                             : Complete Main. N3 O: a3 E: W' s
Default                                  : No% f% @( c$ k! ]& `* c
Forced                                   : No
  m. {, G8 h4 m  m$ WAudio #62 j9 Y! U' @1 l+ `* N: c4 X
ID                                       : 7: [4 e% L$ l/ f
Format                                   : DTS XBR
& g0 O: A7 [$ b7 D7 `Format/Info                              : Digital Theater Systems/ o8 ~" [; q0 J) g; d, H# O
Commercial name                          : DTS-HD High Resolution Audio
- G  m% p: Z+ i$ M! hCodec ID                                 : A_DTS% M* @! U5 X  l: M" t
Duration                                 : 2 h 6 min2 E# O5 @/ Z2 b1 G$ G# p, r
Bit rate mode                            : Constant0 m% p* F6 B" R* e0 s
Bit rate                                 : 2 046 kb/s$ a* m" L  m  j3 ~5 Z3 D
Channel(s)                               : 8 channels
) u% H- d0 [+ ]7 X# [4 A# J9 {Channel layout                           : C L R LFE Lb Rb Lss Rss
3 W& n( }$ A  U$ H9 P" C# E' hSampling rate                            : 48.0 kHz/ d# {, @4 O8 q+ }% y$ E- n
Frame rate                               : 93.750 FPS (512 SPF)/ f: P1 _0 ?8 ?9 @& m
Bit depth                                : 24 bits
, G) }% V( d( Q. z1 T, K; gCompression mode                         : Lossy( P; i2 T) p9 t
Stream size                              : 1.81 GiB (8%)
, }2 F, N" L9 d9 HTitle                                    : DTS-HR 5.1
9 ^' G9 X2 [6 Y) v% i# E: c( TLanguage                                 : Japanese9 U& w7 a! b1 y
Default                                  : No
. e  E) t' R* M1 U3 MForced                                   : No4 j/ V  W6 a4 ]4 Y% I: J; n
Text #15 j7 O0 s$ C7 F  E0 e
ID                                       : 81 M% t6 o$ o7 H% A
Format                                   : PGS
$ t  K& A5 V  K" @0 R2 IMuxing mode                              : zlib/ W7 _* b6 j( P( o  Q, b
Codec ID                                 : S_HDMV/PGS
8 {  f: I, L  y9 X3 {) K. }2 h* [) ECodec ID/Info                            : Picture based subtitle format used on BDs/HD-DVDs
; P' q' X: l  X6 Y/ ]( {3 ]2 {0 uDuration                                 : 25 min 9 s
# h# p3 u4 Z3 r: p0 eBit rate                                 : 886 b/s% e& u0 @5 N( s- ]. y4 ]7 |* q
Frame rate                               : 0.013 FPS
! V% c6 U4 u! R/ ZCount of elements                        : 20$ f3 D. C% Y) j$ o4 E/ ]2 E
Stream size                              : 163 KiB (0%)
0 B+ J8 r2 n; [Title                                    : FORCED
7 w, H/ x( ?" J& XLanguage                                 : English
7 m# R9 X9 e% ~7 b" n. }0 ?% ?& mDefault                                  : No" T$ ]$ k, t2 I/ R0 {2 Y9 `4 h
Forced                                   : Yes
# _- \) |" P  H1 H  zText #2
9 w$ y6 j5 o3 i8 f9 O3 T" lID                                       : 9
) d% b! Z* D' eFormat                                   : PGS
4 s) b! h  `* F6 l! o& cMuxing mode                              : zlib
3 m/ y. T$ J0 DCodec ID                                 : S_HDMV/PGS, y( @) w6 ~% x% Q; G0 g/ B: I
Codec ID/Info                            : Picture based subtitle format used on BDs/HD-DVDs
1 U3 a9 U, Q4 ^2 z, ^9 R% JDuration                                 : 2 h 5 min; F2 v5 z& p( X0 R' O
Bit rate                                 : 23.9 kb/s6 z. H: e3 H8 a2 A- v8 O
Frame rate                               : 0.333 FPS  L: |# v/ j) x
Count of elements                        : 2498. V  z& }+ y' O2 r* c& s
Stream size                              : 21.4 MiB (0%)3 M. |5 f' h! c
Language                                 : English2 y* }2 Z7 l+ K% A6 c
Default                                  : Yes
( c0 y; V; V4 hForced                                   : No8 t) ?9 J& T" k4 Z- Q
Text #3
$ y: F  g  E8 R( O8 eID                                       : 106 c! G6 F( d* R) W
Format                                   : PGS, h. `; ?) g; i8 E) w# F. b
Muxing mode                              : zlib6 z1 Q0 j8 `5 c6 v9 d
Codec ID                                 : S_HDMV/PGS
  Z* y8 E, T. aCodec ID/Info                            : Picture based subtitle format used on BDs/HD-DVDs
* Q+ \; {4 r8 K0 J% O' MDuration                                 : 2 h 4 min
; j1 n0 v" b) ~, U& O; f: YBit rate                                 : 289 b/s
7 k% B5 P1 s5 i* s9 s, DFrame rate                               : 0.003 FPS1 X- {! V: d3 x* }5 b
Count of elements                        : 25
0 D, ~: v6 t* G! mStream size                              : 265 KiB (0%)
) D1 ^- M) \. H; iLanguage                                 : French
) K4 i& r( B# d7 l; g) iDefault                                  : No
5 ~) j& o6 ?+ d7 ^+ k& j$ D8 hForced                                   : No
! \% M* r( S% DText #4
- c7 I- v- ]- G' ]ID                                       : 11' [  w: W8 x$ T6 M3 f# P2 q& E; |
Format                                   : PGS
6 p( Y" v; m4 k0 @5 e2 [8 N, qMuxing mode                              : zlib
: n- v( }3 F% B  L7 Y& WCodec ID                                 : S_HDMV/PGS
4 U* ]9 }, E& t; YCodec ID/Info                            : Picture based subtitle format used on BDs/HD-DVDs0 G0 i9 X7 d4 M
Duration                                 : 2 h 5 min2 H, P) r3 z; k& a- n
Bit rate                                 : 20.7 kb/s
/ E, T6 b& q- k5 mFrame rate                               : 0.310 FPS/ C- e6 E: F* u3 J  g: t' |9 F
Count of elements                        : 23317 s5 Y9 j; N& R! O# Y5 \
Stream size                              : 18.5 MiB (0%); q: D) V5 e' M1 X
Language                                 : French2 ^3 y% I3 \3 f9 b
Default                                  : No4 u$ D/ ?. Z# u% t7 V
Forced                                   : No8 C4 d% C- R0 c7 T- C' s8 W) [
Text #5
) v) R( Z0 o0 _9 yID                                       : 12
' Z- g* F( f( S! d8 SFormat                                   : PGS! o* i3 I6 Z0 {3 t4 V  B
Muxing mode                              : zlib9 i6 Z# b2 ?1 n& j
Codec ID                                 : S_HDMV/PGS
+ M8 \  U4 [5 u9 d- y- t% kCodec ID/Info                            : Picture based subtitle format used on BDs/HD-DVDs& X& |. Z# `) q( @( M/ z- T- ?
Duration                                 : 1 h 39 min
& h2 a# V1 _# oBit rate                                 : 347 b/s
/ {; f( g# t, a2 r/ FFrame rate                               : 0.004 FPS6 m) B( I0 h+ c# d( D
Count of elements                        : 212 f6 w' O0 D1 v$ ^! b: e
Stream size                              : 254 KiB (0%)8 B( U4 t) _0 U2 I+ D1 y5 T
Language                                 : Spanish. }: U: }, ^) y# r/ {
Default                                  : No
$ ]9 p9 @. Q6 }( s- MForced                                   : No! u: K. U" k% ?; J9 a
Text #6
- q6 c. S+ y2 G2 o8 k- g! nID                                       : 132 @+ r% G# T& r; u5 d$ y
Format                                   : PGS
% K  ?1 B- R/ D5 OMuxing mode                              : zlib
5 F5 j# c2 I8 M0 w" QCodec ID                                 : S_HDMV/PGS
8 \4 o1 x+ x  `8 _' nCodec ID/Info                            : Picture based subtitle format used on BDs/HD-DVDs/ w$ Q7 ^9 B1 N% m* n
Duration                                 : 2 h 5 min
, ^5 f+ m$ z' K! @2 Q) M  FBit rate                                 : 22.6 kb/s% c1 ]" s0 P# P2 J$ G5 t  _5 ]
Frame rate                               : 0.333 FPS, y" q# x2 F9 ]1 Q6 i
Count of elements                        : 2497- X- L0 y, W8 Z+ j
Stream size                              : 20.2 MiB (0%)
; _7 b& M' p% {( t1 \) BLanguage                                 : Spanish' l+ e( U7 S- Q6 F8 A
Default                                  : No6 a0 l% G$ A# y! t
Forced                                   : No
9 I4 E* b. `9 j5 P, }( jText #78 {3 e, s8 i& ?# \3 J
ID                                       : 143 U  D9 a( g1 i3 C- G! m  k
Format                                   : PGS7 I1 T! j3 t7 H  s' t
Muxing mode                              : zlib
/ a* K2 Q) S% g' P/ W2 yCodec ID                                 : S_HDMV/PGS
7 _' z  C2 ~/ s: aCodec ID/Info                            : Picture based subtitle format used on BDs/HD-DVDs. x. n6 V5 o& ?6 Y
Duration                                 : 2 h 4 min
8 `3 N+ v3 K8 L2 H( A3 C; zBit rate                                 : 292 b/s0 u6 K8 P* Z4 A8 D
Frame rate                               : 0.004 FPS" \2 L) {" V+ y9 u; f) d
Count of elements                        : 271 M' X& J3 B3 I1 k( ~1 L- ~0 X
Stream size                              : 267 KiB (0%)
3 G0 V1 Q- Y1 g8 K3 S/ HLanguage                                 : Italian
8 t$ `) t4 D" fDefault                                  : No
1 i% \2 |: @0 z/ PForced                                   : No" N% o- W. ?1 m2 I: m
Text #8  u& T- J4 y6 S! _& O: P
ID                                       : 159 @( W- ^" ~- s8 E9 T( @, u
Format                                   : PGS
1 I# f0 `- M. H$ NMuxing mode                              : zlib( ~8 }. U5 |( B) Q  h6 R4 y
Codec ID                                 : S_HDMV/PGS' T: Y5 n2 X& V! R$ A
Codec ID/Info                            : Picture based subtitle format used on BDs/HD-DVDs
5 |% b0 l4 n$ y! `Duration                                 : 2 h 5 min  \9 B2 w0 O$ ]6 \1 T" j
Bit rate                                 : 24.3 kb/s9 S4 V" I- `- `5 \' g: e5 c* o
Frame rate                               : 0.336 FPS7 q% I. p( B! r6 a
Count of elements                        : 25212 Q- p; {2 `% O! @& n
Stream size                              : 21.8 MiB (0%)0 T. @, D* l6 t. }
Language                                 : Italian+ h4 A' O! d5 o+ n5 S
Default                                  : No1 p+ b0 I; H) Q0 l, ~! V
Forced                                   : No
% l" o7 k0 y! Y+ x$ w  pText #9
3 w6 B3 @/ s: @) W# HID                                       : 16
* v! s0 Q! K- s4 I6 v) TFormat                                   : PGS4 M2 ^2 q) Q9 p0 x( E) A4 r6 I4 K
Muxing mode                              : zlib, Y, H9 K8 X; Y+ m' B
Codec ID                                 : S_HDMV/PGS' c! ^" N! F, |3 S% I8 ]
Codec ID/Info                            : Picture based subtitle format used on BDs/HD-DVDs' k; n6 `4 s8 Z, {6 T
Duration                                 : 2 h 4 min5 y) t0 }( t+ @
Bit rate                                 : 246 b/s' r% _; N. d2 p5 F6 k
Frame rate                               : 0.003 FPS
7 ?, c7 _6 f% B! t% w, @Count of elements                        : 23
/ A+ U) |/ c3 F' fStream size                              : 226 KiB (0%)/ v5 F7 H8 @7 L! ~& n4 x: u
Language                                 : German! f" M- O) ]4 `0 S% t; Q" V7 v
Default                                  : No
/ O7 c( R+ T9 ~7 AForced                                   : No; W8 X2 z- n7 j# E, y  S& U0 ?# T3 x4 K
Text #10
# \0 ]6 W1 ?- _- yID                                       : 17: k6 ]- Z; T* N$ g
Format                                   : PGS
7 N1 s) z( U/ V- S1 N3 T. xMuxing mode                              : zlib
6 {4 y, s# Z% c7 O0 R. FCodec ID                                 : S_HDMV/PGS
: v( Q$ m4 ^0 T  D) WCodec ID/Info                            : Picture based subtitle format used on BDs/HD-DVDs
' a4 ]- ^5 `( S. L( `& fDuration                                 : 2 h 5 min' n; P4 B9 f' w3 m
Bit rate                                 : 22.4 kb/s8 o& _/ Y8 }0 ?2 p* g6 z) Q+ n) k
Frame rate                               : 0.306 FPS
# n3 T5 h' c1 T& NCount of elements                        : 23018 q/ H! D; Q% j( K- t
Stream size                              : 20.0 MiB (0%)+ c8 R0 |1 G: t! L( M+ {
Language                                 : German
! ~1 T6 f- l( ?9 T, x4 HDefault                                  : No( ]4 U0 q0 z7 C  ?/ F$ A$ _: a
Forced                                   : No, n: D9 f  _9 Z1 |1 y$ z- Y8 m
Text #11
- _8 u/ b. N) P! H! Q) X1 r4 D" QID                                       : 18
+ ~* L: \0 j. V8 ?% w8 p% ?Format                                   : PGS, b, P+ c7 ^5 ^; F6 [) }
Muxing mode                              : zlib5 S; J9 ?0 f" T, k/ C& h/ d
Codec ID                                 : S_HDMV/PGS
6 e& a; ]5 ~% L# l+ d: C( YCodec ID/Info                            : Picture based subtitle format used on BDs/HD-DVDs
- [8 o) n0 i/ i' s( qDuration                                 : 2 h 5 min/ O. z8 j" U% Y2 e' U: T
Bit rate                                 : 22.7 kb/s2 c& p/ w) \+ |+ W9 {7 Q. l
Frame rate                               : 0.269 FPS
6 P! \/ Y" j1 {. N0 w. bCount of elements                        : 2023& c+ `. k5 ]: k+ w. r8 E4 h
Stream size                              : 20.3 MiB (0%)0 ?, F. J' ]6 D
Language                                 : Dutch* s( s0 H: b" q3 A' C, R% ~. s
Default                                  : No
. [: S. G' D& P- g/ j7 fForced                                   : No
6 ?3 Q. M6 c1 |1 gText #12
* z+ l, c+ g# G0 `ID                                       : 19$ y( z, L7 N( l; Z; i& v
Format                                   : PGS
/ h" W' W, n- R7 G. z7 PMuxing mode                              : zlib$ y/ ?8 j1 V2 p# g" [' D4 v  G
Codec ID                                 : S_HDMV/PGS
* b& e4 c1 d* \# r6 N1 z* C  ?Codec ID/Info                            : Picture based subtitle format used on BDs/HD-DVDs' O' u8 A+ v2 a% U! P# m: y3 L: T. n
Duration                                 : 2 h 5 min0 a; _( d5 ~% x6 q
Bit rate                                 : 19.7 kb/s0 k5 o# A9 u2 \/ C# q0 N5 d
Frame rate                               : 0.217 FPS
) F! S% F9 r1 u: c7 ^8 m6 K  B) lCount of elements                        : 1631
! B' W4 g$ S+ ?. T8 s3 j% P+ w+ AStream size                              : 17.7 MiB (0%)
4 `, i7 q/ N2 _5 m7 `6 K  r9 iLanguage                                 : Danish0 w. |/ v4 q' t6 [) V- @5 q) _- d
Default                                  : No& w- w' m: |% E
Forced                                   : No. S& c: m* j$ `) ?* M5 W! C# l0 f
Text #13
4 v, L; f0 l6 R+ L% ?7 XID                                       : 20
7 `5 C; v3 }7 p$ G( J+ ]Format                                   : PGS/ R5 ?) X) `' k( y( v2 @+ c
Muxing mode                              : zlib
9 K0 |, G5 g0 x+ LCodec ID                                 : S_HDMV/PGS8 C# J" Z/ T2 [8 Z' ~
Codec ID/Info                            : Picture based subtitle format used on BDs/HD-DVDs( _) ~- D5 x  d( i: S" C$ H& E0 }
Duration                                 : 2 h 5 min
' l9 f- r% T: G7 J! KBit rate                                 : 24.0 kb/s
& R$ V+ M* z/ j* B8 {Frame rate                               : 0.332 FPS
! V& d# S% i% L# o3 Z6 ]% ?Count of elements                        : 2493/ \3 ~4 n, h: ?& h* I8 n6 O5 c. I
Stream size                              : 21.5 MiB (0%)  p; f4 h$ ]  s8 W
Language                                 : Finnish
6 F9 x* `* ]! g# h4 fDefault                                  : No
7 p- {, L# E+ g2 G( R- h# ]Forced                                   : No3 s5 r4 @* n6 C2 @9 g2 o* R
Text #14+ N. N% m. H/ S- f2 [2 T8 u$ r
ID                                       : 21
- y0 c& V- N1 @1 a. m5 T% TFormat                                   : PGS3 o% o( o8 D* h+ D9 O9 m$ Z
Muxing mode                              : zlib
5 |- q8 t+ x3 T8 kCodec ID                                 : S_HDMV/PGS; L  D. h5 `6 n& W1 C" F
Codec ID/Info                            : Picture based subtitle format used on BDs/HD-DVDs
7 I! B; l9 a. t  \$ z6 eDuration                                 : 2 h 5 min
- g  M6 K! t3 Q; G! ]: A" g- OBit rate                                 : 21.5 kb/s! R7 _; P& |5 \  Q* a- K
Frame rate                               : 0.336 FPS
% ?$ f. `; z+ m( b. mCount of elements                        : 25234 f% Y2 M9 C9 C8 c& i) h
Stream size                              : 19.3 MiB (0%)2 }/ a4 _7 U- I. {! Y; V8 t. N( J
Language                                 : Norwegian. x( j' f2 J* b' n6 N! r
Default                                  : No1 N; ~4 u, e0 U% a4 I! ~5 F& E9 M
Forced                                   : No2 s; O& q; @1 F! r# A
Text #15: C! n) o0 W4 [" o
ID                                       : 22; D2 e; |/ O4 Z
Format                                   : PGS+ J6 [5 y$ g& Z3 `9 f2 b
Muxing mode                              : zlib
6 ^* u. G/ p; s2 P+ ]& GCodec ID                                 : S_HDMV/PGS
/ R# x+ X' N' c) m; D& l0 rCodec ID/Info                            : Picture based subtitle format used on BDs/HD-DVDs; m. E2 W' q9 [# P* q
Duration                                 : 2 h 5 min
7 L# s5 f4 d  e+ r6 d3 i' wBit rate                                 : 21.4 kb/s3 A4 }* b! ]5 u, H, C
Frame rate                               : 0.253 FPS
& H4 k3 t2 ^! v# k9 K( n8 KCount of elements                        : 1899/ k' n& w1 d4 g
Stream size                              : 19.2 MiB (0%)- M# a; Z5 f# O1 ~! @. U" d: t5 Z* F
Language                                 : Swedish7 @: z. `* O% [% K' p+ I% b% r+ b$ V
Default                                  : No
, b: N' _- G8 L! n, B& }& yForced                                   : No
1 t) ]6 J. `# K" o6 C; n6 ^- ZText #16! }5 o- p& j: S, J9 o& ^9 l
ID                                       : 23: T2 T6 T; p6 V$ c
Format                                   : PGS
* u8 Q' O% N7 `1 Q& bMuxing mode                              : zlib
9 p3 w) G2 \; eCodec ID                                 : S_HDMV/PGS: u' B4 C( \  o
Codec ID/Info                            : Picture based subtitle format used on BDs/HD-DVDs6 m4 K# k9 E9 H
Duration                                 : 2 h 5 min' _+ g2 g5 P* }7 `7 K
Bit rate                                 : 27.5 kb/s- o5 W: L6 o" R7 E+ O! O& S
Frame rate                               : 0.313 FPS
- D$ H6 q3 Q& b( UCount of elements                        : 2354
/ S" d0 H+ {% J$ l5 P: G. a2 n7 MStream size                              : 24.7 MiB (0%): Q4 ]5 B; v# s" G* ~* f
Language                                 : Japanese
, {" N0 }0 J! HDefault                                  : No3 E5 f+ P" g) p) T3 E6 j8 m9 f
Forced                                   : No
( \5 D% i7 ~+ U9 g% f% gMenu #17 L5 Z/ T, {+ o, W% w: Y8 r" ?
00:00:00.000                             : en:Chapter 014 a/ O! [1 Z% m* H0 j
00:03:51.397                             : en:Chapter 02
4 G+ s; i& H- \, _- b00:08:26.506                             : en:Chapter 03: a" v7 w3 N4 r8 L( D
00:14:19.441                             : en:Chapter 04
9 B, z- c- |; W' E% K6 `00:18:23.060                             : en:Chapter 054 @, k6 |1 X$ n+ Y
00:24:37.559                             : en:Chapter 06" r. c. X9 {3 n) H
00:37:58.150                             : en:Chapter 07
( B& e4 C7 w7 X7 {* J7 V  l5 L) i00:47:15.499                             : en:Chapter 08; g6 O! i& R  V  i: d6 m# w- ^
00:50:03.542                             : en:Chapter 09
9 a5 i1 w! w2 L. O8 n00:55:51.056                             : en:Chapter 10) I/ ~# Y0 Y5 p
00:59:46.332                             : en:Chapter 113 h& v. i2 a5 v2 s8 p1 r  U
01:02:19.652                             : en:Chapter 12
$ c+ ^, R/ u1 }- U9 ^* V: ~1 b01:05:18.414                             : en:Chapter 132 V& a/ h% X5 ?% w7 @
01:07:20.786                             : en:Chapter 14
) V' `3 a  `' r/ D' J01:15:03.582                             : en:Chapter 155 a$ U8 K$ a% b- _6 d* s5 A  v2 Z
01:17:01.867                             : en:Chapter 16
' ?+ O5 S' [& N8 ]' Y01:19:18.420                             : en:Chapter 17
' _2 f+ b. V2 L( R01:23:29.337                             : en:Chapter 18
! U- }6 @, V8 C# _. S01:26:34.189                             : en:Chapter 19) h! }+ n! m! B# A% N4 J" o- M$ R
01:28:51.326                             : en:Chapter 20
$ w7 b: d, c) I+ Z" b% _01:34:47.264                             : en:Chapter 21
4 J' U. I+ C$ c# d01:37:38.644                             : en:Chapter 22
- R" z/ V( q- N& X" b8 ?% E' s, B01:41:27.623                             : en:Chapter 23
+ `: V) m8 f% W/ \5 j7 j01:51:03.281                             : en:Chapter 242 A/ w+ U. `3 [/ O# P! k: C; Z
01:53:26.466                             : en:Chapter 25  L: w# H8 ^3 B: U. L7 i; y
01:55:38.848                             : en:Chapter 26
  ^9 L/ V/ w0 ?01:56:32.068                             : en:Chapter 27; [# h$ |# e* f7 g( L8 A9 Y
01:58:48.371                             : en:Chapter 28
( V8 i8 G- a$ J01:59:26.659                             : en:Chapter 29
/ n/ L+ ~- g, ]Menu #20 b; [2 h( d- Z. U; k3 \* {
00:00:00.000                             : en01)00:00:00:0000 I: s' u/ j# J2 m
00:03:51.397                             : en02)00:03:51:397
% E$ d% E# b6 H7 X6 u5 C00:08:26.506                             : en03)00:08:26:506
( X- F  m- t& V1 m3 ~; Z; Z+ }00:14:19.441                             : en04)00:14:19:441
) `' l7 c+ _4 i+ s% D) S8 S1 @00:18:23.060                             : en05)00:18:23:0601 J& [. C: [* l8 J5 q* m3 d8 E9 G
00:24:37.601                             : en06)00:24:37:601
# [4 K) p: ^4 m( O" @) K! I# Y3 f00:37:58.150                             : en07)00:37:58:150
$ ]9 @; P. e; E00:47:15.499                             : en08)00:47:15:499
  D, |' t2 q3 s& ^% F1 {, y" k00:50:03.542                             : en09)00:50:03:542) {3 C- D! d* W7 E9 E- ^5 ~
00:55:51.056                             : en10)00:55:51:056. ^1 Z! |; O9 z0 _0 N6 u# n6 r
00:59:46.332                             : en:(11)00:59:46:332( _7 L# Z% Q& H/ v0 c1 g
01:02:19.652                             : en:(12)01:02:19:652
9 X/ g2 |2 ~  l  b: D+ N+ T3 K01:05:18.414                             : en:(13)01:05:18:414
( n) i1 X# n, L6 o* X: L0 p' z01:07:20.786                             : en:(14)01:07:20:7869 w  V% H. b( R6 ?6 `9 H
01:15:03.582                             : en:(15)01:15:03:582
; {8 r; P1 G. f6 O0 R01:17:01.867                             : en:(16)01:17:01:867. d3 y. H( c, A3 |* t( m0 z' V
01:19:18.420                             : en:(17)01:19:18:420: u/ U3 I2 M' P- x
01:23:29.337                             : en:(18)01:23:29:337
. h7 e2 |  F2 f2 Y. z7 B. q01:26:34.189                             : en:(19)01:26:34:189
1 b  C" p/ D3 a# D1 {1 r  W- z01:28:51.326                             : en:(20)01:28:51:326
: }! {2 _9 u4 D& D1 {3 z8 {01:34:47.306                             : en:(21)01:34:47:3060 |) s; N$ r; j. y: A
01:37:38.644                             : en:(22)01:37:38:6446 m0 X) H) j, w  b
01:41:27.623                             : en:(23)01:41:27:623, b+ a8 T, {& b/ F4 n
01:51:03.281                             : en:(24)01:51:03:281
+ p' [$ d+ ^5 D- `2 M: _/ h01:53:26.466                             : en:(25)01:53:26:4661 E2 W) O% T& _+ u
01:55:38.848                             : en:(26)01:55:38:848/ i9 S( T2 C+ L- q# ?/ I
01:56:32.068                             : en:(27)01:56:32:068. B1 N- D% c2 s1 p( o
01:58:48.371                             : en:(28)01:58:48:371
9 [/ i7 u; \, W/ j! E6 Y7 ~0 e01:59:26.159                             : en:(29)01:59:26:159: ^3 k* ^: ~6 Q' Z+ u: D3 L- A" G
02:06:30.958                             : en:(30)02:06:30:958

# r9 F4 t* F* O& z" u+ H9 ^4K321提示您 点击下方附件名称 即可开始下载
: b% f6 }) P1 r5 x0 q/ b9 w# ^
, M+ `" @1 @+ X2 L
# b3 x/ N3 X7 n& F
多版本下载时请注意区分
/ y- |- ?, M7 }. H: {) e/ D/ \" ^7 q, l
( l- T) s- S8 d6 ]6 R
奇异博士2:疯狂多元宇宙 Doctor.Strange.in.the.Multiverse.of.Madness.2022.1080p.3D.BluRa.x264.DTS-HD.MA.7.1-3D原盘电影下载
1 c* q4 d& }( C: l2 S9 f9 ^0 E+ M% v/ C' E' ]: e  c5 Q
奇异博士2:疯狂多元宇宙 Doctor.Strange.in.the.Multiverse.of.Madness.2022.1080p.3D.BluRay.Half-OU.x264.DTS-HD.MA.7.1-FGT 22.88GB  O. @5 H' ^4 O, {- y) z0 F

Doctor.Strange.in.the.Multiverse.of.Madness.2022.1080p.3D.BluRay.Half-OU.x264.DT.torrent ( 29.32 KB )


% G+ T5 g1 o+ B" q9 l, Z/ {
/ h& m4 p$ O1 w奇异博士2:疯狂多元宇宙 Doctor.Strange.in.the.Multiverse.of.Madness.2022.1080p.3D.BluRay.Half-OU.x264.TrueHD.7.1.Atmos-FGT 23.06GB6 \' E( t2 n- P# [4 M  D5 i3 X( C

Doctor.Strange.in.the.Multiverse.of.Madness.2022.1080p.3D.BluRay.Half-OU.x264.Tr.torrent ( 29.54 KB )

0 I. C9 `% Q: h' J8 ?- U
) P* W  S8 ?/ m8 Z6 N
奇异博士2:疯狂多元宇宙 Doctor.Strange.in.the.Multiverse.of.Madness.2022.1080p.3D.BluRay.Half-SBS.x264.TrueHD.7.1.Atmos-FGT 22.00GB% n) W/ u) _6 D* l/ B

Doctor.Strange.in.the.Multiverse.of.Madness.2022.1080p.3D.BluRay.Half-SBS.x264.T.torrent ( 28.21 KB )


0 P1 K/ `8 ]; A/ A- I  M5 s% G+ R: q# H  N
奇异博士2:疯狂多元宇宙 Doctor.Strange.in.the.Multiverse.of.Madness.2022.1080p.3D.BluRay.Half-SBS.x264.DTS-HD.MA.7.1-FGT 21.82GB
+ F) {$ d% ~+ q" B

Doctor.Strange.in.the.Multiverse.of.Madness.2022.1080p.3D.BluRay.Half-SBS.x264.D.torrent ( 27.99 KB )

2 p, T% k, _7 X4 a$ S

" G% [# x1 x  Z7 E0 s
回复

使用道具 举报

全部回复4 显示全部楼层
Tonyhu82手机认证 发表于 2023-4-6 23:51:25 | 显示全部楼层
4k321提示您
回复 支持 反对

使用道具 举报

xihong手机认证 发表于 2023-11-2 08:15:48 | 显示全部楼层
比较喜欢科幻 奇幻 冒险的题材,在VR粒看的更爽。
回复 支持 反对

使用道具 举报

一诺千金 发表于 2023-12-16 19:57:23 | 显示全部楼层
没有字幕啊?
回复 支持 反对

使用道具 举报

jayden3618手机认证 发表于 2024-3-23 07:53:33 | 显示全部楼层
感谢楼主分享
- S- t& Q! O8 K  ]8 }
回复 支持 反对

使用道具 举报

声明:您在社区发表的所有信息仅代表用户个人观点,与本网站立场无关,希望各位烧友理性发言,不发表违法国家法律禁止的话题。

您需要登录后才可以回帖 登录 | 立即注册

本版积分规则

联系客服 关注微信 下载APP 返回顶部 返回列表