开启左侧

沙丘 Dune.2021.1080p.3D.BluRay.Half-OU.x264.TrueHD.7.1.Atmos-3D原盘电影

小山雀 发表于 2023-3-10 13:49:20 | 显示全部楼层 |阅读模式
沙丘 豆瓣评分: 7.7分
年代:2021年上映
片长:156分钟
类型:剧情 科幻 冒险 
导演:丹尼斯·维伦纽瓦
主演:蒂莫西·柴勒梅德 / 丽贝卡·弗格森 / 奥斯卡·伊萨克 / 戴夫·巴蒂斯塔 / 赞达亚
3 D 格式:half-ou sbs 

封装音轨:DTS-HD.MA 7.1 Dolby TrueHD 7.1 
简       介( @$ {9 |( C' ^9 c

! @% j! p7 q, W8 u  电影《沙丘》为观众呈现了一段神秘而感人至深的英雄之旅。天赋异禀的少年保罗·厄崔迪被命运指引,为了保卫自己的家族和人民,决心前往浩瀚宇宙间最危险的星球,开启一场惊心动魄的冒险。与此同时,各路势力为了抢夺这颗星球上一种能够释放人类最大潜力的珍贵资源而纷纷加入战场。最终,唯有那些能够战胜内心恐惧的人才能生存下去。
3 Y+ j; Q- A% x+ N
+ _0 f3 L8 ~1 t- `8 v获奖情况 (共42项)
* u; ?2 ]) y+ a2 n2 F7 _2 _
0 @4 ~9 Y# H" M  }9 g! _) t
9 V2 Q% J0 h* C; Y5 W
     第94届奥斯卡金像奖 (2022)# W# `' u1 M5 A1 {" u7 U% @9 |
  最佳影片(提名)8 D, W9 h  U3 P2 ^
  最佳改编剧本(提名)
* z' M. X$ R' H# H( b* ]- }; n  最佳摄影
4 d/ {* L4 Z5 I$ M3 m" q   └──格雷格·弗莱瑟 (id:1028361)& H4 H: w8 y- r0 X
  最佳剪辑+ X7 |' d; R) r0 m1 }( R- _- {
   └──乔·沃克 (id:1336020)) H) c# o- v2 S4 U% d0 |+ I
  最佳视觉效果
! P$ ?! T& J/ w0 n/ }1 x  最佳音响: X+ N2 |+ s1 o: G% d1 w
  最佳艺术指导" c' g6 J7 K! s! t7 s
  最佳服装设计(提名)% N" v: f: w/ Y" d! j
   └──杰奎琳·韦斯特 (id:1300754)
, W4 E3 Y2 |0 s, B3 b  最佳化妆与发型设计(提名)2 L& a7 l( B+ A- l# U
  最佳原创配乐1 M9 V( N9 S- u- B
   └──汉斯·季默 (id:1054386)0 Q1 j: n4 F* N9 G; J% T
  第79届金球奖 (2022)
" [' d1 S' C9 }3 d5 B- `  电影类 最佳剧情片(提名)
0 h/ r: J0 A: }+ k  电影类 最佳导演(提名)0 D( a/ n- g6 r2 v3 v! z
   └──丹尼斯·维伦纽瓦 (id:1028333)
  D7 |. s% k, L: H6 W  电影类 最佳原创配乐/ U7 O- S' ?+ O
   └──汉斯·季默 (id:1054386)
3 K3 G# ~" T: ^  第75届英国电影学院奖 (2022); x* P' z: K4 R
  电影奖 最佳影片(提名)1 A$ p. t, n. U; r( U, K7 C
  电影奖 最佳改编剧本(提名)' I- ]2 g$ }4 h
  电影奖 最佳摄影' Q6 z1 L% B1 }
  电影奖 最佳剪辑(提名)+ C$ R5 X, @& x* b' a9 h& V1 B8 j
  电影奖 最佳化妆/发型(提名)" c: [& Q( G3 ~% d& q7 {
  电影奖 最佳服装设计(提名)
+ e9 _2 J, q# C6 B' r* h  电影奖 最佳艺术指导
6 V; {1 F. l5 S  电影奖 最佳特殊视觉效果
  E1 g0 x9 F( p( z& J; w% b. S& [  电影奖 最佳原创配乐
; Y4 @0 }* H0 B  电影奖 最佳选角(提名)
; K# N  T6 g1 _3 b7 @  电影奖 最佳音效
7 R) R0 {7 n( W; k' t, G7 t( k  第45届日本电影学院奖 (2022); |" b+ b; K3 v0 C) [# d3 v1 f; O
  最佳外语片(提名)
! y" G6 [+ E* u; S  第67届意大利大卫奖 (2022)7 i, O6 L4 F% x0 M) x
  最佳外语片(提名)
5 U0 ~4 F4 m0 w& h( k! }1 f   └──丹尼斯·维伦纽瓦 (id:1028333)
! v# W: g4 R) b  第74届美国导演工会奖 (2022)
2 O6 J/ U. o9 [1 y  最佳电影导演(提名)5 |) F& y* p: M3 Q2 [
   └──丹尼斯·维伦纽瓦 (id:1028333)
3 h* Z% r) B3 }' K$ \, W) \' \; C. e  第28届美国演员工会奖 (2022)
) g" c7 D; ?8 `0 b7 c  y* V  电影最佳特技群戏(提名)
' D, X. o0 T4 q  e  第74届美国编剧工会奖 (2022)
( j4 l4 q# y* ]5 m$ o' i. E3 J+ T  电影奖 最佳改编剧本(提名)
( T1 u; E: M, R/ H, F5 f  第24届美国服装设计工会奖 (2022)
, i; h6 {8 f( b& _0 X  科幻/奇幻题材电影最佳服装设计(提名): R9 @0 m6 Z* k$ L$ z  c* N
  第27届美国评论家选择电影奖 (2022)
) a* T1 U4 D: ~5 b7 Z8 X  最佳影片(提名)* P$ b. @9 E5 Y$ x3 F6 h) j) [+ o
  最佳导演(提名)
7 \* l0 F" [, w% ~8 _: H' J   └──丹尼斯·维伦纽瓦 (id:1028333). E" z0 E8 T, k- u! P2 k% u3 a
  最佳改编剧本(提名)
% v" D! V( Z# K2 Q& F  `  最佳摄影(提名)
! Q5 F; l2 j9 t7 v5 s/ A4 V   └──格雷格·弗莱瑟 (id:1028361)
0 J" Y, z, t. l* M% J- ~  最佳剪辑(提名)
5 @* a! ^% t4 a; v; Z# K/ @   └──乔·沃克 (id:1336020)- m3 P7 _) i% a6 @: q0 G2 s
  最佳配乐
* Q3 c  o% J5 [  _/ a  最佳美术指导
& a6 j+ {, Z- `# i6 ~- ]  最佳服装设计(提名)
8 X' a  O" K7 t) F  最佳发型化妆(提名)* F( t& u& C- V
  最佳视觉效果
2 Z: f4 O: `  T: a  第7届豆瓣电影年度榜单 (2020)
6 I1 y0 ^. D* n  最值得期待的外语电影(提名)
. n3 E( \$ {: E7 i5 j/ L2 ?  第6届豆瓣电影年度榜单 (2019), t& g. _- {  Z& R  @! W* q
  最值得期待的外语电影(提名)
5 Q4 @' K. r, Z6 w0 d
9 a6 c  f" W; L+ T9 j9 |" F# ~影片参数6 c9 a9 Y; l/ s. `; R, r# `) U
Video: j% W- v& L& P+ }
ID                                       : 10 _- Q" T, [/ [. V" s4 L" y
Format                                   : AVC
" I( N/ l% m2 eFormat/Info                              : Advanced Video Codec
& M1 ]1 g( w8 c; t9 uFormat profile                           : [email protected]9 t4 E( V) z8 f6 J
Format settings                          : CABAC / 2 Ref Frames
6 V6 ~: S& ]2 |. m6 D( X, c0 FFormat settings, CABAC                   : Yes2 i: E( y+ a+ S
Format settings, Reference frames        : 2 frames- _2 J: p8 @+ o
Codec ID                                 : V_MPEG4/ISO/AVC6 j8 p7 }8 r4 a; I
Duration                                 : 2 h 35 min0 {2 n/ Y: R1 d3 M
Bit rate                                 : 14.7 Mb/s
7 p% I! }! D7 x6 \/ T! {: ?Nominal bit rate                         : 16.0 Mb/s
4 c, H0 i6 [# t$ Q$ M5 d; p+ i7 l; lWidth                                    : 1 920 pixels
# h, D( ~$ n5 ~& K% `# qHeight                                   : 1 080 pixels6 B7 r1 ?2 ~) @  n9 ?
Display aspect ratio                     : 16:9! H, `* H. ^* t/ a
Frame rate mode                          : Constant/ i4 ]2 o' X  F2 S6 `; h8 h
Frame rate                               : 23.976 (24000/1001/189150) FPS; \) t5 a# |8 p) O  V, S8 n
Color space                              : YUV$ K1 f/ Q+ ^+ H. [+ |! X
Chroma subsampling                       : 4:2:02 ]# O7 K- Y& s! l5 s
Bit depth                                : 8 bits
$ |8 x7 Q$ `3 B8 t7 A( r# N6 A. oScan type                                : Progressive
6 z$ ^1 D# a. C0 c2 e8 oBits/(Pixel*Frame)                       : 0.295
1 Y8 {% j1 y, R% MStream size                              : 15.9 GiB (65%)
% q% ]0 {9 v  F# S) sWriting library                          : x264 core 148
: w0 _6 C2 u* jEncoding settings                        : cabac=1 / ref=1 / deblock=1:-1:-1 / analyse=0x3:0 / me=hex / subme=5 / psy=0 / mixed_ref=0 / me_range=16 / chroma_me=1 / trellis=0 / 8x8dct=1 / cqm=0 / deadzone=21,11 / fast_pskip=0 / chroma_qp_offset=0 / threads=48 / lookahead_threads=8 / sliced_threads=0 / nr=0 / decimate=1 / interlaced=0 / bluray_compat=0 / constrained_intra=0 / bframes=2 / b_pyramid=0 / b_adapt=1 / b_bias=0 / direct=1 / weightb=0 / open_gop=0 / weightp=0 / keyint=24 / keyint_min=13 / scenecut=40 / intra_refresh=0 / rc_lookahead=24 / rc=cbr / mbtree=0 / bitrate=16000 / ratetol=1.0 / qcomp=0.60 / qpmin=0 / qpmax=69 / qpstep=4 / vbv_maxrate=16000 / vbv_bufsize=16000 / nal_hrd=none / filler=0 / ip_ratio=1.40 / pb_ratio=1.30 / aq=1:1.00
: j8 s6 r7 J0 V% RDefault                                  : Yes% k4 `- O  E/ D" i9 e" D$ O
Forced                                   : No7 N2 w2 C( O6 C# J) p% x
Color range                              : Limited
/ h7 v( L" f& G4 d- B4 [3 c* zColor primaries                          : BT.709' o3 }% O. Z. Z! G+ U$ o
Transfer characteristics                 : BT.709( p5 \9 G: Y" V4 U4 p
Matrix coefficients                      : BT.709
% N: M- H& p3 w. j: P# uAudio #1
0 j: }2 }$ b" S" {3 M; }ID                                       : 2/ [7 U4 e. b) A
Format                                   : MLP FBA 16-ch
. D: x( n: Y3 p( NFormat/Info                              : Meridian Lossless Packing FBA with 16-channel presentation
( M6 F# A: |( Q2 FCommercial name                          : Dolby TrueHD with Dolby Atmos
6 P/ D/ [& X* Q- A& m- ]$ X! BCodec ID                                 : A_TRUEHD
0 c; e' j6 Y0 A' J( s2 M* CDuration                                 : 2 h 35 min
- E7 ?% t0 e  a1 `! Y5 e* F( [Bit rate mode                            : Variable
$ y+ n  c  h  O2 EBit rate                                 : 3 243 kb/s
& m# ~4 N* Y4 L% H/ X6 gMaximum bit rate                         : 5 472 kb/s) s0 a9 N' y7 u
Channel(s)                               : 8 channels
5 Y7 H% }# z7 F# D% n  e! g$ p" |Channel layout                           : L R C LFE Ls Rs Lb Rb
! W+ p- [( Q$ V! kSampling rate                            : 48.0 kHz( F% y# L6 L7 D# D" V5 F
Frame rate                               : 1 200.000 FPS (40 SPF)' z# P+ ]9 A# x* K
Compression mode                         : Lossless3 A: c+ O7 D5 f9 S/ Y; [, \
Stream size                              : 3.52 GiB (14%)
8 R/ \$ n$ s. B9 Q! d2 JTitle                                    : TrueHD 7.1 Atmos" v% N( k- r) Y( F- C
Language                                 : English
# S8 T8 u- ]; n& {0 l% @$ y5 n4 mDefault                                  : Yes
/ R' A3 _8 q5 s& jForced                                   : No
& e2 x$ T# y% {5 M. c; XNumber of dynamic objects                : 11
; k/ {; ]5 C- \5 I4 tBed channel count                        : 1 channel6 F( X0 n5 V" j- X  E9 X
Bed channel configuration                : LFE
) n" g0 A7 w9 ?/ x/ b0 KAudio #2% ?) K1 y# u& H2 w, ^2 O! _% I
ID                                       : 3
, S( m2 [5 \6 L' l. Z2 c* C# {Format                                   : AC-3" m' T6 ~* v' g
Format/Info                              : Audio Coding 3
, x4 F( G6 Y: f% ~2 `Commercial name                          : Dolby Digital; T* g& k8 ^& J8 i
Codec ID                                 : A_AC3
) Y: y6 d, A% q$ @Duration                                 : 2 h 35 min
. a) |7 I5 T  z) k+ vBit rate mode                            : Constant
9 I9 u% W2 c5 O0 v/ UBit rate                                 : 384 kb/s
6 N! _5 E% v/ l* j' o; q0 EChannel(s)                               : 6 channels1 e+ o- |) v4 J7 n# A; ]& y" N
Channel layout                           : L R C LFE Ls Rs2 x7 p% u  k2 x0 w
Sampling rate                            : 48.0 kHz
; i/ b# S9 r6 AFrame rate                               : 31.250 FPS (1536 SPF)% o6 \4 R0 L4 q; j
Compression mode                         : Lossy* P) H( i: k8 X& r1 v# t" s
Stream size                              : 427 MiB (2%)
5 Y9 i2 L1 \5 v, qTitle                                    : DD 5.1
9 C% p, q3 F! y) iLanguage                                 : English, t2 H$ V6 w# {& \
Service kind                             : Complete Main" A3 P5 C& a/ h0 I
Default                                  : No
0 Q- h& E+ r; X( KForced                                   : No
: r2 {/ {. L+ p. MAudio #3+ H6 _( C: _# S5 q
ID                                       : 4
+ [; @* X% P% hFormat                                   : AC-3
7 }. @, U( Q9 V6 d3 @Format/Info                              : Audio Coding 35 R' O# o  i/ Y, r  g: k9 _1 a1 H
Commercial name                          : Dolby Digital
0 g7 O/ F2 B5 a; ]) aCodec ID                                 : A_AC33 J; R% s9 ]- w& N) l, r
Duration                                 : 2 h 35 min
: r# g4 p& I  n5 ~Bit rate mode                            : Constant- L" r- a! r* K) F. |& Y
Bit rate                                 : 384 kb/s
. o" W: h! C2 n- z( ]' iChannel(s)                               : 6 channels
* V' L4 E6 P2 E. z: ^Channel layout                           : L R C LFE Ls Rs( ~5 b9 Q# a' h: Q$ \
Sampling rate                            : 48.0 kHz2 c6 |, y% s: t3 x
Frame rate                               : 31.250 FPS (1536 SPF)& `% W) S( X5 i: b  ~3 v
Compression mode                         : Lossy$ o, g/ v1 |' l* ~
Stream size                              : 427 MiB (2%)$ M! O- o" h4 u
Title                                    : DD 5.1
8 l* n3 r, u5 p$ X: D9 ^- ILanguage                                 : English( f8 d7 H# `. G3 }0 h
Service kind                             : Complete Main
3 [; t$ E! S' g6 g  k2 SDefault                                  : No
0 ]1 S8 G. f& }8 OForced                                   : No
% w) X: {; Y7 _1 YAudio #4- {1 Y- J/ g# T
ID                                       : 5
! ]- w: d5 h5 c3 J/ h' T! V; LFormat                                   : AC-3
* G4 q) P8 s1 k7 f  x' ?! XFormat/Info                              : Audio Coding 35 p! `" `4 v6 F% E" v1 T. f
Commercial name                          : Dolby Digital
# ~- t# e4 z9 F0 \: O% g/ ACodec ID                                 : A_AC36 H  B! ?$ e, `
Duration                                 : 2 h 35 min6 q* E. }  s6 x
Bit rate mode                            : Constant
/ W. L( Y* Z" C# d2 HBit rate                                 : 448 kb/s
& @6 r- x) e2 z& `. n9 R% b+ ]Channel(s)                               : 6 channels3 b- I; ^6 }/ ?/ S9 x8 J
Channel layout                           : L R C LFE Ls Rs/ z+ n# v% l/ G. y; k, Z2 p/ f
Sampling rate                            : 48.0 kHz
0 Z3 H* F3 \9 R# P* ^* }Frame rate                               : 31.250 FPS (1536 SPF)+ W" Z8 i+ B8 e- `
Compression mode                         : Lossy
5 S$ p2 L4 V$ c) UStream size                              : 498 MiB (2%)
) g# B9 k6 a& PTitle                                    : DD 5.1  u) b) R. o6 H; k8 x
Language                                 : French1 c0 X7 _( F, L2 e" j: O4 R) h
Service kind                             : Complete Main
& m: X7 ^0 f1 v' O; y: XDefault                                  : No; [! z1 v* G( X4 C
Forced                                   : No
% f' Y5 u) Y3 [Audio #51 C( s. Y' V" ^- T2 P/ D
ID                                       : 6
) v8 C- c' r% O! A9 @1 kFormat                                   : DTS XLL
( T' {2 n  l' V& {8 c, W9 qFormat/Info                              : Digital Theater Systems
2 u( e/ {1 N% S! \6 C4 \. ^Commercial name                          : DTS-HD Master Audio# B/ r; `* o' X$ I& P9 O) a, C
Codec ID                                 : A_DTS( |/ I6 F) [( {0 |
Duration                                 : 2 h 35 min
  ~+ k: Z7 Y+ Y) \Bit rate mode                            : Variable
! s1 u# C+ @* O/ m8 G" zBit rate                                 : 2 330 kb/s. s* T4 a6 U$ d8 f8 Q$ Z
Channel(s)                               : 6 channels
& u' ^6 I, b5 b( \5 V0 @1 CChannel layout                           : C L R Ls Rs LFE
+ g7 [8 f) U3 Y* h8 R# i( m+ SSampling rate                            : 48.0 kHz
- S9 {2 C) \& v4 W* o6 zFrame rate                               : 93.750 FPS (512 SPF)/ g2 g6 \! K" _6 f2 ^4 F$ I. J
Bit depth                                : 16 bits- N( d" ?$ F6 \4 N
Compression mode                         : Lossless
2 j" X4 m) g+ Q: Q4 I, Q' w3 U$ BStream size                              : 2.53 GiB (10%)  [# Z9 c2 r1 w7 m1 x* R
Title                                    : DTS-HD MA 5.19 D; i+ X) p6 a: q
Language                                 : German0 T, A" h3 a4 A- E1 a! m
Default                                  : No
' {# C' Y: E- k1 RForced                                   : No
) u! D0 R- E- a7 sAudio #6% j, ^+ Q- h9 X% t5 [( D* h9 y
ID                                       : 7  N2 V* U$ [; L& D% y. l& T4 v. b
Format                                   : AC-3
' m' C% S/ t( E! k# Z9 G$ KFormat/Info                              : Audio Coding 3$ w- N7 R' ]/ f1 b8 \
Commercial name                          : Dolby Digital. a$ D' _; Y& Y
Codec ID                                 : A_AC30 S1 g' ^) K- x/ L. K+ z
Duration                                 : 2 h 35 min$ L6 `' E5 a6 p# y+ a1 e8 d
Bit rate mode                            : Constant/ x0 A& V2 `& g1 v1 J
Bit rate                                 : 128 kb/s' p; P% g% |: ^, }! Z. Y
Channel(s)                               : 2 channels
+ O" Y! d7 {. T, `Channel layout                           : L R& i  h; k* j# Z; a- G
Sampling rate                            : 48.0 kHz
% t: P7 W+ {) CFrame rate                               : 31.250 FPS (1536 SPF)# M: @$ B- U0 N5 @2 b
Compression mode                         : Lossy
2 f1 Q# y2 {4 u0 a1 t) W1 W* xStream size                              : 142 MiB (0%)
9 d2 h" \4 P* W! ITitle                                    : DD 2.0
* F. w* H( I9 ~6 _" Q0 zLanguage                                 : German
& W& f, ~% {7 ~Service kind                             : Complete Main
* E8 z) c9 ^/ D9 `5 A! f1 X; kDefault                                  : No
/ i9 V; Z. g1 u* Q! N( E0 R+ z" LForced                                   : No
" k8 c1 P6 Q: x" C9 e! WAudio #74 H" p" Y& Y8 X2 O; D9 `3 [
ID                                       : 8
8 s0 s3 Y+ O. n0 F2 }0 |1 XFormat                                   : AC-34 H4 F+ q1 c4 K
Format/Info                              : Audio Coding 3& v+ {0 R7 [2 m4 t# |7 y
Commercial name                          : Dolby Digital
  C  ?5 G6 \# U; ICodec ID                                 : A_AC3+ h4 T2 a0 D% M" ^1 W. ^) s
Duration                                 : 2 h 35 min
7 W0 O5 V6 @- }* }$ G* CBit rate mode                            : Constant
2 ]- v+ |: t, Q6 B, [$ LBit rate                                 : 448 kb/s9 D! f0 D* B  [, c
Channel(s)                               : 6 channels; Z) c* h8 ^/ M: v: \
Channel layout                           : L R C LFE Ls Rs
. |: \4 Q6 |; Z- S! ^Sampling rate                            : 48.0 kHz
) N; ?  R9 Y7 V7 C0 K6 |" aFrame rate                               : 31.250 FPS (1536 SPF)$ Y% J! J4 E$ T/ c7 T4 h* L
Compression mode                         : Lossy
4 _4 D+ D# q2 j3 @( v5 `% g) yStream size                              : 498 MiB (2%)8 b" Q3 [% A8 a6 Z# }+ }, I
Title                                    : DD 5.1% e" n1 i$ U+ Z8 W# W( m
Language                                 : Spanish
" }4 @; ?0 M( C* w  [Service kind                             : Complete Main
8 B5 y) l# y' f- J/ S( [& _% s0 t+ ~: ZDefault                                  : No0 ?$ o* }" J- j# x" H# z
Forced                                   : No
2 D4 n7 z+ E7 l4 |" qAudio #8, Q* i8 j2 A7 y! l6 b+ h
ID                                       : 9& @0 D5 c; B6 a: n; e9 c; {
Format                                   : AC-3
7 C$ \9 z8 E  I  z! lFormat/Info                              : Audio Coding 3
# j$ J. Y  v1 @( f' X5 E; FCommercial name                          : Dolby Digital  e# P3 }2 X! D* \( Y' D' S
Format settings                          : Dolby Surround EX
: \0 T! t: t# f8 \4 F: y4 dCodec ID                                 : A_AC3
( P8 k8 h: E; E, z0 |! o; E( X6 jDuration                                 : 2 h 35 min
8 N$ t) x4 V$ I8 H& r7 X) }% PBit rate mode                            : Constant
- H7 x. i7 e& B6 Y, J0 x- XBit rate                                 : 448 kb/s# |/ n* u3 {$ P5 o0 M0 l( v
Channel(s)                               : 6 channels
) ~' o0 Q/ z0 s6 Q- DChannel layout                           : L R C LFE Ls Rs
+ c3 l4 p1 D. i' {Sampling rate                            : 48.0 kHz
$ s% a! H! v7 J+ N0 n2 [9 zFrame rate                               : 31.250 FPS (1536 SPF)! l* [* h1 M  E' I9 m
Compression mode                         : Lossy4 P- a# R- z1 s3 p8 O' C
Stream size                              : 498 MiB (2%)7 q8 Y# m, B3 U2 {3 T; ~
Title                                    : DD 5.1
5 [2 [/ k; `" G9 yLanguage                                 : English
/ v* ^+ ~4 @7 g. zService kind                             : Complete Main3 \0 P4 [  X: V5 }; X/ X$ ~* d
Default                                  : No
8 h: V( L  j7 i, }" _' kForced                                   : No' L! K/ ~- {3 D  T& _# s* B
Text #1
# C; f0 u" d8 Y( TID                                       : 106 P0 k1 }: c  a* U9 p
Format                                   : PGS( H, C4 i; N% _) F1 x9 s( y* F! Z
Muxing mode                              : zlib6 b7 w" ?! n1 y+ b  Q. M5 p3 M
Codec ID                                 : S_HDMV/PGS, G: t0 r3 B8 W
Codec ID/Info                            : Picture based subtitle format used on BDs/HD-DVDs
6 p2 s" ]: l- A( w  S  U8 ODuration                                 : 2 h 26 min/ R6 |) n/ m1 d
Bit rate                                 : 34.1 kb/s% R1 n' d! a: E- }) {' |+ k
Frame rate                               : 0.387 FPS
% }) _& K- [& W1 Y$ G: ]Count of elements                        : 3406
6 d; E+ f( o4 z( s6 J, |5 JStream size                              : 35.9 MiB (0%)8 K! K# M8 x+ e1 f$ M) x
Language                                 : English
, z) g" O9 G7 EDefault                                  : No9 M8 r1 x& X6 ?, O/ {! i
Forced                                   : No8 P8 K8 H' i4 S
Text #2
1 k* e4 w* Z, l# ?! H. {( nID                                       : 11
7 N' u9 |( K( _6 ]% M# v' o' E3 A& HFormat                                   : PGS
6 K5 g) ^& M% N6 vMuxing mode                              : zlib1 r6 Z+ V$ [, K$ K
Codec ID                                 : S_HDMV/PGS
! k) v3 B3 G$ FCodec ID/Info                            : Picture based subtitle format used on BDs/HD-DVDs0 `: l8 P, }! |* ?
Duration                                 : 2 h 35 min8 i* t% {! ~# y1 v0 H
Bit rate                                 : 24.4 kb/s
4 w5 M3 d) F. u# {: c  ~Frame rate                               : 0.268 FPS
# l& ]# V- j. e# I3 K1 ?. |Count of elements                        : 2498
0 |: s7 t& s( B3 h: K* L$ MStream size                              : 27.0 MiB (0%)0 g  T# h; s6 y
Language                                 : French! s( y$ M4 U2 n
Default                                  : No
4 Q# K; R+ t1 ?" M% V+ kForced                                   : No# r0 t- a- e7 l5 y6 R. }0 Q
Text #3
/ I6 Z& {5 Z# K) N2 G7 XID                                       : 12
3 U2 k  y: o2 ~# i0 p! qFormat                                   : PGS) l7 ?! Z4 Y, r
Muxing mode                              : zlib
# u8 P/ U# a! y4 L. YCodec ID                                 : S_HDMV/PGS( ~5 r6 K$ D" m; \2 r( w
Codec ID/Info                            : Picture based subtitle format used on BDs/HD-DVDs) |9 T3 R1 g5 [2 M- F! B& V; Y
Duration                                 : 2 h 35 min& e9 z6 O& S4 I$ L3 c' M5 y/ E
Bit rate                                 : 31.1 kb/s6 ^5 X- y9 L' Y8 N
Frame rate                               : 0.275 FPS
  e8 s2 A  ]8 B( s: @! R  RCount of elements                        : 2560
" v5 Y" c5 h, H3 |5 b6 Q! E, OStream size                              : 34.5 MiB (0%)! l' M! I$ E& |7 p: Z
Language                                 : German6 P# j' ~- l) o. E: {
Default                                  : No3 H9 H' R" `7 H" \$ I7 z1 A7 P
Forced                                   : No! e) z- P7 f, u, z) @1 T" d# Q1 z
Text #4
3 o1 }6 K( T) }% i2 ?. i4 S0 OID                                       : 13
& B! e' C4 M( u/ F* a& @( b" r( @- OFormat                                   : PGS
7 i! l8 b( u& V0 w9 AMuxing mode                              : zlib4 n6 `/ N+ a' `1 _# n. S) \
Codec ID                                 : S_HDMV/PGS- ^# [' F9 l( N$ O8 y
Codec ID/Info                            : Picture based subtitle format used on BDs/HD-DVDs
! s( x5 n8 f) a" V: TDuration                                 : 2 h 35 min
0 }7 C: l% p4 h& v6 i# O7 VBit rate                                 : 26.1 kb/s) _; j' ~' C/ ^& A; M( W
Frame rate                               : 0.270 FPS
- Y, K: M* Y+ S3 r8 @% @# H5 ]Count of elements                        : 2512% o: Y" B: ~& b& e  Y& s; ?
Stream size                              : 29.0 MiB (0%)9 b' R! j8 v5 q# j2 ?* x9 {+ h% R
Language                                 : Spanish1 ]8 u/ T( T+ Y+ q) `
Default                                  : No3 w6 ~: q, t$ U0 O
Forced                                   : No
6 D9 \" z3 t+ M* z0 G5 W) m) s( @% jMenu2 l7 ?' w% x1 D$ X- o0 H
00:00:00.000                             : en:Chapter 01
5 l- g; f1 z) {: g9 I: Y2 L+ t- Y3 j7 m0 D00:03:16.154                             : en:Chapter 02' P4 `: Y2 N' ]9 J9 ?- W! W
00:12:54.815                             : en:Chapter 03
, |" f. ^% e( @/ U. Z3 s% Z! @& z00:22:00.736                             : en:Chapter 04; d2 e% D. s( M' k% Z/ U+ G7 H
00:29:16.921                             : en:Chapter 058 q7 ^% i6 H- s* z
00:39:10.931                             : en:Chapter 06
* q4 o3 Y: E- L  ~. @$ P) J# Q00:47:19.795                             : en:Chapter 07/ Z$ F6 s5 w! X" _6 |. V
00:56:53.493                             : en:Chapter 08
5 _6 h- B: b, x: X* D01:06:50.381                             : en:Chapter 09; {: b! B) a" k' G4 R- `3 W6 j& M
01:16:44.891                             : en:Chapter 102 K& ]: `0 r' G# E: l  j0 O
01:26:00.655                             : en:Chapter 116 F" n, M& x7 X* |" r5 D6 O2 ^4 o. N
01:36:00.379                             : en:Chapter 12
; V9 O3 o- G1 j+ a" y01:45:09.469                             : en:Chapter 13
/ I/ Y$ p. g) i7 w9 D8 ~01:53:50.323                             : en:Chapter 145 t: O% p) ^, F/ z7 |  K' V
02:03:38.536                             : en:Chapter 15
0 o$ |7 n: w* ]7 ^02:12:13.342                             : en:Chapter 16* F/ n) R" c- J1 U+ y7 h/ r
02:20:45.770                             : en:Chapter 175 [0 w' I, f. q5 U  B6 Z$ `

0 z7 ?5 S& t2 m, k% @6 H( k6 i02:27:27.797                             : en:Chapter 18

7 ?8 ]- |" C+ j& S  C/ D, ^+ N$ R4K321提示您 点击下方附件名称 即可开始下载
9 Z0 J3 w5 ?# Q/ P8 c9 T" _9 \6 B
7 T' l) U  ~0 G* O. q' Y
多版本下载时请注意区分
3 s. m1 T2 J8 l' W7 F' @* e! J& w$ o3 \8 I) t) `$ ]
6 e* y; B; U: h+ _/ ~4 n. T9 q
沙丘 Dune.2021.1080p.3D.BluRay.x264.TrueHD.7.1.Atmos-3D原盘电影下载. {' N" x( ~/ S: k- L
7 x  `4 p8 }; r! Q3 w
沙丘 Dune.2021.1080p.3D.BluRay.Half-OU.x264.TrueHD.7.1.Atmos-FGT 24.51GB/ O( B$ ~, w) c+ w

Dune.2021.1080p.3D.BluRay.Half-OU.x264.TrueHD.7.1.Atmos-FGT.torrent ( 31.28 KB )

( c/ q; \5 L! j6 z2 [/ P# A1 M/ d

* f7 _2 f7 A6 \# X% }+ t沙丘 Dune.2021.1080p.3D.BluRay.Half-SBS.x264.TrueHD.7.1.Atmos-FGT 22.89GB" ^: s, A: D1 X9 N0 z7 J

Dune.2021.1080p.3D.BluRay.Half-SBS.x264.TrueHD.7.1.Atmos-FGT.torrent ( 29.27 KB )


% I1 _$ Z2 x' G( S
9 c8 p: O2 G. R% I沙丘 Dune.2021.1080p.3D.BluRay.Half-SBS.x264.DTS-HD.MA.7.1-FGT 23.15GB
. Z  t1 l0 ~% h. a

Dune.2021.1080p.3D.BluRay.Half-SBS.x264.DTS-HD.MA.7.1-FGT.torrent ( 29.58 KB )


; \9 }" h+ o+ n
: S( m. D/ ?7 G7 `  j
回复

使用道具 举报

全部回复1 显示全部楼层
jayden3618手机认证 发表于 2024-3-23 07:53:51 | 显示全部楼层
感谢楼主分享
# L0 _: v5 b/ M+ k3 T5 }3 E7 }
回复 支持 反对

使用道具 举报

声明:您在社区发表的所有信息仅代表用户个人观点,与本网站立场无关,希望各位烧友理性发言,不发表违法国家法律禁止的话题。

您需要登录后才可以回帖 登录 | 立即注册

本版积分规则

联系客服 关注微信 下载APP 返回顶部 返回列表