4k321

搜索
开启左侧

[传记纪录片] 异乡人在纽约4k.After.Maria.2019.2160p.NF.WEB-DL.x265.10bit.SDR.DDP5.1-纪录片下载

小山雀 发表于 2023-3-10 13:22:49 | 显示全部楼层 |阅读模式 来自: 中国重庆

异乡人在纽约4k.After.Maria.2019.2160p.NF.WEB-DL.x265.10bit.SDR.DDP5.1-纪录片下载

异乡人在纽约4k.After.Maria.2019.2160p.NF.WEB-DL.x265.10bit.SDR.DDP5.1-纪录片下载




简       介

       在飓风“玛丽亚”后,波多黎各的坚强女性被迫逃离该岛,她们在布朗克斯联邦紧急事务管理局(FEMA)的一家酒店里像家人一样亲密相处。他们在新生活中寻求稳定,因为力量试图将他们分开。

影片参数
异乡人在纽约4k.After.Maria.2019.2160p.NF.WEB-DL.x265.10bit.SDR.DDP5.1-纪录片信息
Video
ID : 1
Format : HEVC
Format/Info : High Efficiency Video Coding
Format profile : Main 10@L5@Main
Codec ID : V_MPEGH/ISO/HEVC
Duration : 37 min 32 s
Bit rate : 11.4 Mb/s
Width : 3 840 pixels
Height : 2 160 pixels
Display aspect ratio : 16:9
Frame rate mode : Constant
Frame rate : 23.976 (24000/1001) FPS
Color space : YUV
Chroma subsampling : 4:2:0
Bit depth : 10 bits
Bits/(Pixel*Frame) : 0.057
Stream size : 2.99 GiB (95%)
Language : English
Default : Yes
Forced : No
Color range : Limited
Color primaries : BT.709
Transfer characteristics : BT.709
Matrix coefficients : BT.709

Audio
ID : 2
Format : E-AC-3
Format/Info : Enhanced AC-3
Commercial name : Dolby Digital Plus
Codec ID : A_EAC3
Duration : 37 min 32 s
Bit rate mode : Constant
Bit rate : 640 kb/s
Channel(s) : 6 channels
Channel layout : L R C LFE Ls Rs
Sampling rate : 48.0 kHz
Frame rate : 31.250 FPS (1536 SPF)
Compression mode : Lossy
Stream size : 172 MiB (5%)
Language : English
Service kind : Complete Main
Default : Yes
Forced : No

Text #27
ID : 29
Format : UTF-8
Codec ID : S_TEXT/UTF8
Codec ID/Info : UTF-8 Plain Text
Duration : 35 min 34 s
Bit rate : 161 b/s
Frame rate : 0.198 FPS
Count of elements : 423
Stream size : 42.1 KiB (0%)
Language : Thai
Default : No
Forced : No

Text #28
ID : 30
Format : UTF-8
Codec ID : S_TEXT/UTF8
Codec ID/Info : UTF-8 Plain Text
Duration : 36 min 45 s
Bit rate : 60 b/s
Frame rate : 0.195 FPS
Count of elements : 429
Stream size : 16.4 KiB (0%)
Language : Turkish
Default : No
Forced : No

Text #29
ID : 31
Format : UTF-8
Codec ID : S_TEXT/UTF8
Codec ID/Info : UTF-8 Plain Text
Duration : 35 min 34 s
Bit rate : 87 b/s
Frame rate : 0.198 FPS
Count of elements : 422
Stream size : 22.8 KiB (0%)
Language : Vietnamese
Default : No
Forced : No

Text #30
ID : 32
Format : UTF-8
Codec ID : S_TEXT/UTF8
Codec ID/Info : UTF-8 Plain Text
Duration : 36 min 41 s
Bit rate : 58 b/s
Frame rate : 0.199 FPS
Count of elements : 438
Stream size : 15.8 KiB (0%)
Title : Simplified
Language : Chinese (Simplied)
Default : No
Forced : No




Text #31
ID : 33
Format : UTF-8
Codec ID : S_TEXT/UTF8
Codec ID/Info : UTF-8 Plain Text
Duration : 36 min 44 s
Bit rate : 57 b/s
Frame rate : 0.196 FPS
Count of elements : 432
Stream size : 15.3 KiB (0%)
Title : Traditional
Language : Chinese (Traditional)
Default : No
Forced : No
Menu
00:36:02.000 : en:End Credits


4k321提示您 点击下方附件名称 即可开始下载


异乡人在纽约4k.After.Maria.2019.2160p.NF.WEB-DL.x265.10bit.SDR.DDP5.1-纪录片下载

异乡人在纽约4k.After.Maria.2019.2160p.NF.WEB-DL.x265.10bit.SDR.DDP5.1-简繁中字【3.16 GB】

After.Maria.2019.2160p.NF.WEB-DL.x265.10bit.SDR.DDP5.1-NewYear.torrent ( 16.43 KB )


回复

使用道具 举报

全部回复0 显示全部楼层

声明:您在社区发表的所有信息仅代表用户个人观点,与本网站立场无关,希望各位烧友理性发言,不发表违法国家法律禁止的话题。

您需要登录后才可以回帖 登录 | 立即注册

本版积分规则

联系客服 关注微信 下载APP 返回顶部 返回列表