开启左侧

[动画片] 龙珠Z:复活的F/七龙珠Z:复活的F 2015.DUBBED.720p.BluRay.x264.DD5.1-RARBG 3.9GB

蓝鸟 发表于 2019-9-22 04:46:40 | 显示全部楼层 |阅读模式
龙珠Z:复活的F/七龙珠Z:复活的F 2015.DUBBED.720p.BluRay.x264.DD5.1-RARBG 3.9GB-1.jpg
◎译  名 龙珠Z:复活的F/七龙珠Z:复活的F
◎片  名 ドラゴンボールZ 復活のF
◎年  代 2015
◎国  家 日本
◎类  别 动画
◎语  言 日语
◎上映日期 2015-04-18(日本)
◎IMDb评分  8.0/10 from 7,262 users
◎IMDb链接  http://www.imdb.com/title/tt3819668/
◎豆瓣评分 6.6/10 from 442 users
◎豆瓣链接 http://movie.douban.com/subject/25931246/
◎片  长 89分钟
◎导  演 山室直儀
◎主  演 野泽雅子 Masako Nozawa
      中尾隆圣 Ry?sei Nakao
      山寺宏一 K?ichi Yamadera
      森田成一 Masakazu Morita
      堀川りょう
      佐藤正治
      鶴ひろみ
      田中真弓 Mayumi Tanaka
      古川登志夫 Toshio Furukawa
      草尾毅 Takeshi Kusao
      绿川光 Hikaru Midorikawa
      皆口裕子 Y?ko Minaguchi
◎简  介
  宿命的激突!!超越神的战斗开始——!!!!
  在与破坏神比鲁斯的战斗之后,地球再度迎来和平,但弗利萨军残存的索露贝和塔格玛为了寻找龙珠而逼近地球。其目的是,为了让军团再起而令弗利萨复活。宇宙史上最邪恶的这一愿望终于实现,复活的弗利萨计划着向悟空他们这些赛亚人复仇……于是,新弗利萨军聚集到地球,悟饭、比克、小林等人与1000名士兵展开激战。悟空与贝吉塔开始了与弗利萨的宿命对决,但弗利萨的实力却获得了压倒性的提升!
  “让你见识一下吧……我的更进一步的进化!!”
  如今,超越极限的战士们的空前绝后之战开幕——
Video
ID                                       : 1
Format                                   : AVC
Format/Info                              : Advanced Video Codec
Format profile                           : High@L4.1
Format settings, CABAC                   : Yes
Format settings, ReFrames                : 4 frames
Codec ID                                 : V_MPEG4/ISO/AVC
Duration                                 : 1h 33mn
Bit rate                                 : 5 500 Kbps
Width                                    : 1 280 pixels
Height                                   : 720 pixels
Display aspect ratio                     : 16:9
Frame rate mode                          : Constant
Frame rate                               : 23.976 fps
Color space                              : YUV
Chroma subsampling                       : 4:2:0
Bit depth                                : 8 bits
Scan type                                : Progressive
Bits/(Pixel*Frame)                       : 0.249
Stream size                              : 3.53 GiB (91%)
Title                                    : Dragon.Ball.Z.Resurrection.F.2015.DUBBED.720p.BluRay.x264.DD5.1-RARBG
Writing library                          : x264 core 146 r2555 0c21480
Encoding settings                        : cabac=1 / ref=4 / deblock=1:-2:-2 / analyse=0x3:0x113 / me=umh / subme=7 / psy=1 / psy_rd=1.00:0.15 / mixed_ref=1 / me_range=16 / chroma_me=1 / trellis=1 / 8x8dct=1 / cqm=0 / deadzone=21,11 / fast_pskip=1 / chroma_qp_offset=-3 / threads=12 / lookahead_threads=3 / sliced_threads=0 / nr=0 / decimate=1 / interlaced=0 / bluray_compat=0 / constrained_intra=0 / bframes=5 / b_pyramid=2 / b_adapt=2 / b_bias=0 / direct=3 / weightb=1 / open_gop=0 / weightp=2 / keyint=250 / keyint_min=25 / scenecut=40 / intra_refresh=0 / rc_lookahead=50 / rc=abr / mbtree=1 / bitrate=5500 / ratetol=1.0 / qcomp=0.60 / qpmin=0 / qpmax=69 / qpstep=4 / vbv_maxrate=31250 / vbv_bufsize=31250 / nal_hrd=none / filler=0 / ip_ratio=1.40 / aq=1:0.60
Language                                 : English
Default                                  : Yes
Forced                                   : No
Audio
ID                                       : 2
Format                                   : AC-3
Format/Info                              : Audio Coding 3
Mode extension                           : CM (complete main)
Format settings, Endianness              : Big
Codec ID                                 : A_AC3
Duration                                 : 1h 33mn
Bit rate mode                            : Constant
Bit rate                                 : 384 Kbps
Channel(s)                               : 6 channels
Channel positions                        : Front: L C R, Side: L R, LFE
Sampling rate                            : 48.0 KHz
Compression mode                         : Lossy
Stream size                              : 258 MiB (7%)
Title                                    : Dragon.Ball.Z.Resurrection.F.2015.DUBBED.720p.BluRay.x264.DD5.1-RARBG
Language                                 : English
Default                                  : Yes
Forced                                   : No
Text
ID                                       : 3
Format                                   : UTF-8
Codec ID                                 : S_TEXT/UTF8
Codec ID/Info                            : UTF-8 Plain Text
Language                                 : English
Default                                  : Yes
Forced                                   : No
Menu
00:00:00.000                             : en:Chapter 01
00:03:59.781                             : en:Chapter 02
00:08:08.946                             : en:Chapter 03
00:11:24.392                             : en:Chapter 04
00:18:09.088                             : en:Chapter 05
00:25:42.499                             : en:Chapter 06
00:33:17.620                             : en:Chapter 07
00:38:44.030                             : en:Chapter 08
00:43:08.419                             : en:Chapter 09
00:50:59.973                             : en:Chapter 10
00:57:27.277                             : en:Chapter 11
01:03:13.915                             : en:Chapter 12
01:08:56.757                             : en:Chapter 13
01:12:07.740                             : en:Chapter 14
01:16:48.895                             : en:Chapter 15
01:21:49.946                             : en:Chapter 16
01:23:53.570                             : en:Chapter 17
01:26:42.864                             : en:Chapter 18
01:29:21.356                             : en:Chapter 19
01:33:05.413                             : en:Chapter 20

精彩剧照

龙珠Z:复活的F/七龙珠Z:复活的F 2015.DUBBED.720p.BluRay.x264.DD5.1-RARBG 3.9GB-2.png 龙珠Z:复活的F/七龙珠Z:复活的F 2015.DUBBED.720p.BluRay.x264.DD5.1-RARBG 3.9GB-3.png 龙珠Z:复活的F/七龙珠Z:复活的F 2015.DUBBED.720p.BluRay.x264.DD5.1-RARBG 3.9GB-4.png 龙珠Z:复活的F/七龙珠Z:复活的F 2015.DUBBED.720p.BluRay.x264.DD5.1-RARBG 3.9GB-5.png 龙珠Z:复活的F/七龙珠Z:复活的F 2015.DUBBED.720p.BluRay.x264.DD5.1-RARBG 3.9GB-6.png 龙珠Z:复活的F/七龙珠Z:复活的F 2015.DUBBED.720p.BluRay.x264.DD5.1-RARBG 3.9GB-7.png
                                                                                

                                                                                                                                                  


4K321.com" target="_blank" class="relatedlink">蓝光高清网提示您 点击下方附件名称 马上开始下载

Dragon.Ball.Z.Resurrection.F.2015.DUBBED.720p.BluRay.x264.DD5.1-RARBG.torrent ( 77.97 KB )



温馨提示:
本站资源优先使用迅雷下载,迅雷会员下载,速度基本可以跑满宽带
如果遇到无资源或者版权问题无法下载,推荐使用115网盘离线下载(点击查看115网盘离线下载教程


回复

使用道具 举报

全部回复0 显示全部楼层

声明:您在社区发表的所有信息仅代表用户个人观点,与本网站立场无关,希望各位烧友理性发言,不发表违法国家法律禁止的话题。

您需要登录后才可以回帖 登录 | 立即注册

本版积分规则

联系客服 关注微信 下载APP 返回顶部 返回列表