开启左侧

[恐怖片] 鬼镜/凶镜/鬼镜西洋版 Mirrors.2008.UNRATED.720p.BluRay.x264-SEPTiC 4.35GB

蓝鸟 发表于 2019-9-22 04:22:18 | 显示全部楼层 |阅读模式
鬼镜/凶镜/鬼镜西洋版 Mirrors.2008.UNRATED.720p.BluRay.x264-SEPTiC 4.35GB-1.jpg
◎译  名 鬼镜/凶镜/鬼镜西洋版
◎片  名 Mirrors
◎年  代 2008
◎国  家 美国/罗马尼亚
◎类  别 恐怖/悬疑/惊悚
◎语  言 英语
◎上映日期 2008-08-15
◎IMDb评分  6.2/10 from 81,130 users
◎IMDb链接  http://www.imdb.com/title/tt0790686/
◎豆瓣评分 6.9/10 from 13,069 users
◎豆瓣链接 http://movie.douban.com/subject/1949329/
◎片  长 110 分钟/112 分钟(unrated version)
◎导  演 亚历山大·阿嘉 Alexandre Aja
◎主  演 基弗·萨瑟兰 Kiefer Sutherland
      宝拉·巴顿 Paula Patton
      Cameron Boyce
      Erica Gluck
      艾米·斯马特 Amy Smart
◎简  介
  警探本?卡森(Kiefer Sutherland 基弗?萨瑟兰 饰)因枪杀同事被迫从纽约警察局提前退休,他的婚姻也随之破裂。落魄的本暂住在妹妹安琪(Amy Smart 饰)的公寓里,终日借酒浇愁。一段时间沉沦过后,本重抖精神,找到了一份保安的工作。他所供职的五月花购物商场五年前曾被大火毁于一旦,令他倍感奇怪的是,在这座焦黑的建筑物中,那一面面镜子却格外明亮。
  数日后,本在商场的镜子上发现奇怪的手印,而次日亦在妹妹家的镜子上见到恐怖的景象。接下来的日子里,恐怖事件接连发生……
Video
ID                                       : 1
Format                                   : AVC
Format/Info                              : Advanced Video Codec
Format profile                           : High@L4.1
Format settings, CABAC                   : Yes
Format settings, ReFrames                : 5 frames
Format settings, GOP                     : N=1
Codec ID                                 : V_MPEG4/ISO/AVC
Duration                                 : 1h 51mn
Bit rate                                 : 4 090 Kbps
Width                                    : 1 280 pixels
Height                                   : 528 pixels
Display aspect ratio                     : 2.40:1
Frame rate mode                          : Constant
Frame rate                               : 23.976 fps
Color space                              : YUV
Chroma subsampling                       : 4:2:0
Bit depth                                : 8 bits
Scan type                                : Progressive
Bits/(Pixel*Frame)                       : 0.252
Stream size                              : 3.09 GiB (71%)
Writing library                          : x264 core 65 r1074M b6bb3d4
Encoding settings                        : cabac=1 / ref=5 / deblock=1:0:0 / analyse=0x3:0x133 / me=umh / subme=7 / psy_rd=1.0:0.0 / mixed_ref=1 / me_range=16 / chroma_me=1 / trellis=1 / 8x8dct=1 / cqm=0 / deadzone=21,11 / chroma_qp_offset=-2 / threads=6 / nr=0 / decimate=1 / mbaff=0 / bframes=3 / b_pyramid=1 / b_adapt=1 / b_bias=0 / direct=1 / wpredb=1 / keyint=250 / keyint_min=25 / scenecut=40(pre) / rc=2pass / bitrate=4090 / ratetol=1.0 / qcomp=0.60 / qpmin=10 / qpmax=51 / qpstep=4 / cplxblur=20.0 / qblur=0.5 / ip_ratio=1.40 / pb_ratio=1.30 / aq=1:1.00
Language                                 : English
Default                                  : Yes
Forced                                   : No
Audio
ID                                       : 2
Format                                   : DTS
Format/Info                              : Digital Theater Systems
Mode                                     : 16
Format settings, Endianness              : Big
Codec ID                                 : A_DTS
Duration                                 : 1h 51mn
Bit rate mode                            : Constant
Bit rate                                 : 1 509 Kbps
Channel(s)                               : 6 channels
Channel positions                        : Front: L C R, Side: L R, LFE
Sampling rate                            : 48.0 KHz
Bit depth                                : 24 bits
Compression mode                         : Lossy
Stream size                              : 1.17 GiB (27%)
Language                                 : English
Default                                  : Yes
Forced                                   : No
Mirrors
http://www.imdb.com/title/tt0790686/
Rating : 6.2/10
Video :  1280*528 @ 4091
Audio :  DTS

精彩剧照

鬼镜/凶镜/鬼镜西洋版 Mirrors.2008.UNRATED.720p.BluRay.x264-SEPTiC 4.35GB-2.jpg
                                                                                

                                                                                                                                                  


4K321.com" target="_blank" class="relatedlink">蓝光高清网提示您 点击下方附件名称 马上开始下载

Mirrors.2008.UNRATED.720p.BluRay.x264-SEPTiC.torrent ( 174.6 KB )



温馨提示:
本站资源优先使用迅雷下载,迅雷会员下载,速度基本可以跑满宽带
如果遇到无资源或者版权问题无法下载,推荐使用115网盘离线下载(点击查看115网盘离线下载教程


回复

使用道具 举报

全部回复0 显示全部楼层

声明:您在社区发表的所有信息仅代表用户个人观点,与本网站立场无关,希望各位烧友理性发言,不发表违法国家法律禁止的话题。

您需要登录后才可以回帖 登录 | 立即注册

本版积分规则

联系客服 关注微信 下载APP 返回顶部 返回列表