开启左侧

[喜剧片] 亨利·普尔驾到/上帝在我家/了却残生 Henry.Poole.Is.Here.2008.720p.Bluray.x264-SEPTiC 4.4GB

蓝鸟 发表于 2019-9-22 04:21:27 | 显示全部楼层 |阅读模式
? 亨利·普尔驾到/上帝在我家/了却残生 Henry.Poole.Is.Here.2008.720p.Bluray.x264-SEPTiC 4.4GB-1.jpg
◎译  名 亨利·普尔驾到/上帝在我家/了却残生
◎片  名 Henry Poole Is Here
◎年  代 2008
◎国  家 美国
◎类  别 喜剧/剧情
◎语  言 英语
◎上映日期 2008-01-21
◎IMDb评分  6.5/10 from 10,844 users
◎IMDb链接  http://www.imdb.com/title/tt1029120/
◎豆瓣评分 6.3/10 from 912 users
◎豆瓣链接 http://movie.douban.com/subject/3006619/
◎片  长 99 分钟
◎导  演 马克·佩灵顿 Mark Pellington
◎主  演 卢克·威尔逊 Luke Wilson
      拉妲·米契尔 Radha Mitchell
      艾德里安娜·巴拉扎 Adriana Barraza
      乔治·洛佩兹 George Lopez
      切瑞·海恩斯 Cheryl Hines
◎简  介
  一直以来都过着平静生活的亨利(卢克·威尔逊 Luke Wilson 饰)意外的发现自己竟然身患绝症时日无多,心灰意冷的他决定离群索居,独自躲藏起来,了却此生。他在洛杉矶郊区买了一座小房子,避免了一切不必要的社交,将生活圈尽量的缩小。
  让亨利没有想到的是,邻居埃斯佩兰莎(艾德里安娜·巴拉扎 Adriana Barraza 饰)竟然在他家的墙壁上看到了神迹,这个消息一传十十传百,霎时间,亨利的家成为了众多信徒朝圣的“宝地”,其中便有独自抚养小女儿的美丽女子多恩(拉妲·米契尔 Radha Mitchell 饰)。多恩的女儿患有儿童自闭症,然而,在看到神迹的一瞬间,小姑娘竟然开口说话了。这一奇迹和多恩的出现让亨利重新燃起了对于生活和爱情的希望。
Henry Poole Is Here
http://www.imdb.com/title/tt1029120/
Rating : 6.6/10
Video :  1280*544 @ 5692
Audio :  AC3
Video
ID                                       : 1
Format                                   : AVC
Format/Info                              : Advanced Video Codec
Format profile                           : High@L4.1
Format settings, CABAC                   : Yes
Format settings, ReFrames                : 5 frames
Codec ID                                 : V_MPEG4/ISO/AVC
Duration                                 : 1h 38mn
Bit rate                                 : 5 692 Kbps
Width                                    : 1 280 pixels
Height                                   : 528 pixels
Display aspect ratio                     : 2.40:1
Frame rate mode                          : Constant
Frame rate                               : 23.976 fps
Color space                              : YUV
Chroma subsampling                       : 4:2:0
Bit depth                                : 8 bits
Scan type                                : Progressive
Bits/(Pixel*Frame)                       : 0.351
Stream size                              : 3.84 GiB (88%)
Writing library                          : x264 core 65 r1069M ed32ad2
Encoding settings                        : cabac=1 / ref=5 / deblock=1:0:0 / analyse=0x3:0x133 / me=umh / subme=7 / psy_rd=1.0:0.0 / mixed_ref=1 / me_range=16 / chroma_me=1 / trellis=1 / 8x8dct=1 / cqm=0 / deadzone=21,11 / chroma_qp_offset=-2 / threads=6 / nr=0 / decimate=1 / mbaff=0 / bframes=3 / b_pyramid=1 / b_adapt=1 / b_bias=0 / direct=1 / wpredb=1 / keyint=250 / keyint_min=25 / scenecut=40(pre) / rc=2pass / bitrate=5692 / ratetol=1.0 / qcomp=0.60 / qpmin=10 / qpmax=51 / qpstep=4 / cplxblur=20.0 / qblur=0.5 / ip_ratio=1.40 / pb_ratio=1.30 / aq=1:1.00
Language                                 : English
Default                                  : Yes
Forced                                   : No
Audio
ID                                       : 2
Format                                   : AC-3
Format/Info                              : Audio Coding 3
Mode extension                           : CM (complete main)
Format settings, Endianness              : Big
Codec ID                                 : A_AC3
Duration                                 : 1h 38mn
Bit rate mode                            : Constant
Bit rate                                 : 640 Kbps
Channel(s)                               : 6 channels
Channel positions                        : Front: L C R, Side: L R, LFE
Sampling rate                            : 48.0 KHz
Compression mode                         : Lossy
Stream size                              : 452 MiB (10%)
Default                                  : Yes
Forced                                   : No

精彩剧照

亨利·普尔驾到/上帝在我家/了却残生 Henry.Poole.Is.Here.2008.720p.Bluray.x264-SEPTiC 4.4GB-2.jpg                                                                                 

                                                                                                                                                  



4K321.com" target="_blank" class="relatedlink">蓝光高清网提示您 点击下方附件名称 马上开始下载

Henry.Poole.Is.Here.2008.720p.Bluray.x264-SEPTiC.torrent ( 177.36 KB )



温馨提示:
本站资源优先使用迅雷下载,迅雷会员下载,速度基本可以跑满宽带
如果遇到无资源或者版权问题无法下载,推荐使用115网盘离线下载(点击查看115网盘离线下载教程


回复

使用道具 举报

全部回复0 显示全部楼层

声明:您在社区发表的所有信息仅代表用户个人观点,与本网站立场无关,希望各位烧友理性发言,不发表违法国家法律禁止的话题。

您需要登录后才可以回帖 登录 | 立即注册

本版积分规则

联系客服 关注微信 下载APP 返回顶部 返回列表