开启左侧

[恐怖片] 杀人魔蚊6:完结篇/图书馆 The.Hoarder.2015.720p.BluRay.x264.DTS-RARBG 4.14GB

蓝鸟 发表于 2019-9-22 03:50:01 | 显示全部楼层 |阅读模式
杀人魔蚊6:完结篇/图书馆 The.Hoarder.2015.720p.BluRay.x264.DTS-RARBG 4.14GB-1.jpg
◎译  名 杀人魔蚊6:完结篇/图书馆/杀人魔蚊VS鬼蚊子
◎片  名 The Hoarder
◎年  代 2015
◎国  家 英国
◎类  别 惊悚/恐怖
◎语  言 英语
◎上映日期 2016-01-01
◎IMDb评分  5.2/10 from 189 users
◎IMDb链接  http://www.imdb.com/title/tt1891923/
◎片  长 106分钟
◎导  演 Matt Winn
◎主  演 Mischa Barton
      Robert Knepper
      Charlotte Salt
◎简  介
  When Ella discovers her Wall Street banker boyfriend is renting a secret storage unit| she suspects he s using it to hide an affair. Enlisting the help of her best
friend Molly she breaks into the facility only to discover something more terrifying instead. Now trapped in a darkened building with a group of neurotic strangers
who start disappearing one by one| Ella soon uncovers even worse horror in the dank depths. Her life or death battle to escape eternal enslavement is about to
begin....
Video
ID                                       : 1
Format                                   : AVC
Format/Info                              : Advanced Video Codec
Format profile                           : High@L4.1
Format settings, CABAC                   : Yes
Format settings, ReFrames                : 4 frames
Codec ID                                 : V_MPEG4/ISO/AVC
Duration                                 : 1h 25mn
Bit rate                                 : 5 500 Kbps
Width                                    : 1 280 pixels
Height                                   : 534 pixels
Display aspect ratio                     : 2.40:1
Original display aspect ratio            : 2.40:1
Frame rate mode                          : Constant
Frame rate                               : 24.000 fps
Color space                              : YUV
Chroma subsampling                       : 4:2:0
Bit depth                                : 8 bits
Scan type                                : Progressive
Bits/(Pixel*Frame)                       : 0.335
Stream size                              : 3.15 GiB (76%)
Title                                    : The.Hoarder.2015.720p.BluRay.x264.DTS-RARBG
Writing library                          : x264 core 146 r2555 0c21480
Encoding settings                        : cabac=1 / ref=4 / deblock=1:-2:-2 / analyse=0x3:0x113 / me=umh / subme=7 / psy=1 / psy_rd=1.00:0.15 / mixed_ref=1 / me_range=16 / chroma_me=1 / trellis=1 / 8x8dct=1 / cqm=0 / deadzone=21,11 / fast_pskip=1 / chroma_qp_offset=-3 / threads=12 / lookahead_threads=3 / sliced_threads=0 / nr=0 / decimate=1 / interlaced=0 / bluray_compat=0 / constrained_intra=0 / bframes=3 / b_pyramid=2 / b_adapt=2 / b_bias=0 / direct=3 / weightb=1 / open_gop=0 / weightp=2 / keyint=250 / keyint_min=25 / scenecut=40 / intra_refresh=0 / rc_lookahead=50 / rc=abr / mbtree=1 / bitrate=5500 / ratetol=1.0 / qcomp=0.60 / qpmin=0 / qpmax=69 / qpstep=4 / vbv_maxrate=31250 / vbv_bufsize=31250 / nal_hrd=none / filler=0 / ip_ratio=1.40 / aq=1:1.00
Language                                 : English
Default                                  : Yes
Forced                                   : No
Audio
ID                                       : 2
Format                                   : DTS
Format/Info                              : Digital Theater Systems
Mode                                     : 16
Format settings, Endianness              : Big
Codec ID                                 : A_DTS
Duration                                 : 1h 25mn
Bit rate mode                            : Constant
Bit rate                                 : 1 509 Kbps
Channel(s)                               : 6 channels
Channel positions                        : Front: L C R, Side: L R, LFE
Sampling rate                            : 48.0 KHz
Bit depth                                : 16 bits
Compression mode                         : Lossy
Stream size                              : 928 MiB (22%)
Title                                    : The.Hoarder.2015.720p.BluRay.x264.DTS-RARBG
Language                                 : English
Default                                  : Yes
Forced                                   : No
Menu
00:00:00.000                             : en:Chapter 01
00:06:20.000                             : en:Chapter 02
00:13:44.416                             : en:Chapter 03
00:21:43.375                             : en:Chapter 04
00:27:33.125                             : en:Chapter 05
00:34:16.625                             : en:Chapter 06
00:41:52.458                             : en:Chapter 07
00:48:59.958                             : en:Chapter 08
00:57:39.625                             : en:Chapter 09
01:03:16.666                             : en:Chapter 10
01:10:27.458                             : en:Chapter 11
01:17:10.291                             : en:Chapter 12

精彩剧照

杀人魔蚊6:完结篇/图书馆 The.Hoarder.2015.720p.BluRay.x264.DTS-RARBG 4.14GB-2.jpg 杀人魔蚊6:完结篇/图书馆 The.Hoarder.2015.720p.BluRay.x264.DTS-RARBG 4.14GB-3.jpg 杀人魔蚊6:完结篇/图书馆 The.Hoarder.2015.720p.BluRay.x264.DTS-RARBG 4.14GB-4.jpg 杀人魔蚊6:完结篇/图书馆 The.Hoarder.2015.720p.BluRay.x264.DTS-RARBG 4.14GB-5.jpg 杀人魔蚊6:完结篇/图书馆 The.Hoarder.2015.720p.BluRay.x264.DTS-RARBG 4.14GB-6.jpg 杀人魔蚊6:完结篇/图书馆 The.Hoarder.2015.720p.BluRay.x264.DTS-RARBG 4.14GB-7.jpg                                                                                 

                                                                                                                                                  


4K321.com" target="_blank" class="relatedlink">蓝光高清网提示您 点击下方附件名称 马上开始下载

The.Hoarder.2015.720p.BluRay.x264.DTS-RARBG.torrent ( 83.44 KB )



温馨提示:
本站资源优先使用迅雷下载,迅雷会员下载,速度基本可以跑满宽带
如果遇到无资源或者版权问题无法下载,推荐使用115网盘离线下载(点击查看115网盘离线下载教程


回复

使用道具 举报

全部回复0 显示全部楼层

声明:您在社区发表的所有信息仅代表用户个人观点,与本网站立场无关,希望各位烧友理性发言,不发表违法国家法律禁止的话题。

您需要登录后才可以回帖 登录 | 立即注册

本版积分规则

联系客服 关注微信 下载APP 返回顶部 返回列表