开启左侧

[剧情片] 独眼龙/渺小的家伙们 One-Eyed.Jacks.1961.720p.BluRay.x264-FilmHD 5.46GB

蓝鸟 发表于 2019-9-22 03:39:54 | 显示全部楼层 |阅读模式
? 独眼龙/渺小的家伙们 One-Eyed.Jacks.1961.720p.BluRay.x264-FilmHD 5.46GB-1.jpg
◎译  名 独眼龙/渺小的家伙们
◎片  名 One-Eyed Jacks
◎年  代 1961
◎国  家 美国
◎类  别 西部
◎语  言 英语
◎上映日期 1961-03-30(美国)
◎IMDb评分  7.2/10 from 6,453 users
◎IMDb链接  http://www.imdb.com/title/tt0055257/
◎豆瓣评分 7.0/10 from 29 users
◎豆瓣链接 http://movie.douban.com/subject/1299915/
◎片  长 141分钟
◎导  演 马龙·白兰度 Marlon Brando
◎主  演 马龙·白兰度 Marlon Brando
      卡尔·莫尔登 Karl Malden
      凯蒂·乔拉杜 Katy Jurado
      蒂莫西·凯瑞 Timothy Carey
      罗多尔福·阿科斯塔 Rodolfo Acosta
      菲利普·韩 Philip Ahn
◎简  介
  在一次抢劫中,由于被达德出卖,里奥被关进了监狱。5年后,他同狱友莫得斯成功地越狱。后来他们入了鲍伯的团伙,并准备抢劫蒙特利镇的银行。里奥的仇人达德此时成了镇上有名望的人物,担任镇上的司法官。达德的继女路易莎同里奥相爱了,而耿耿于怀的达德却等待机会报复。机会来了。里奥误杀了一个醉鬼,达德不仅当众羞辱了里奥,还将里奥投进了监狱。路易莎利用探监的机会帮助里奥逃出监狱。不依不饶的达德追上了里奥,里奥在决斗中将达德杀死。
◎获奖情况
  第34届奥斯卡金像奖 (1962)
  彩色片最佳摄影(提名) 查尔斯·朗
Video
ID                                       : 1
Format                                   : AVC
Format/Info                              : Advanced Video Codec
Format profile                           : High@L4.1
Format settings, CABAC                   : Yes
Format settings, ReFrames                : 5 frames
Codec ID                                 : V_MPEG4/ISO/AVC
Duration                                 : 2h 21mn
Bit rate                                 : 4 383 Kbps
Width                                    : 1 280 pixels
Height                                   : 696 pixels
Display aspect ratio                     : 1.85:1
Frame rate mode                          : Constant
Frame rate                               : 23.976 fps
Color space                              : YUV
Chroma subsampling                       : 4:2:0
Bit depth                                : 8 bits
Scan type                                : Progressive
Bits/(Pixel*Frame)                       : 0.205
Stream size                              : 4.21 GiB (77%)
Writing library                          : x264 core 119 r2106 07efeb4
Encoding settings                        : cabac=1 / ref=5 / deblock=1:0:0 / analyse=0x3:0x113 / me=umh / subme=8 / psy=1 / psy_rd=1.00:0.00 / mixed_ref=1 / me_range=16 / chroma_me=1 / trellis=1 / 8x8dct=1 / cqm=0 / deadzone=21,11 / fast_pskip=1 / chroma_qp_offset=-2 / threads=12 / sliced_threads=0 / nr=0 / decimate=1 / interlaced=0 / bluray_compat=0 / constrained_intra=0 / bframes=3 / b_pyramid=2 / b_adapt=2 / b_bias=0 / direct=3 / weightb=1 / open_gop=0 / weightp=2 / keyint=240 / keyint_min=24 / scenecut=40 / intra_refresh=0 / rc_lookahead=50 / rc=2pass / mbtree=1 / bitrate=4383 / ratetol=1.0 / qcomp=0.60 / qpmin=0 / qpmax=69 / qpstep=4 / cplxblur=20.0 / qblur=0.5 / ip_ratio=1.40 / aq=1:1.00
Language                                 : English
Default                                  : Yes
Forced                                   : No
Audio
ID                                       : 2
Format                                   : DTS
Format/Info                              : Digital Theater Systems
Mode                                     : 16
Format settings, Endianness              : Big
Codec ID                                 : A_DTS
Duration                                 : 2h 21mn
Bit rate mode                            : Constant
Bit rate                                 : 1 152 Kbps
Channel(s)                               : 6 channels
Channel(s)_Original                      : 2 channels
Channel positions                        : Front: L R
Sampling rate                            : 48.0 KHz
Bit depth                                : 24 bits
Compression mode                         : Lossy
Stream size                              : 1.14 GiB (21%)
Language                                 : English
Default                                  : Yes
Forced                                   : No
Menu
00:00:00.000                             : en:00:00:00.000
00:08:55.785                             : en:00:08:55.785
00:17:51.570                             : en:00:17:51.570
00:30:26.700                             : en:00:30:26.700
00:40:41.856                             : en:00:40:41.856
00:51:02.309                             : en:00:51:02.309
01:00:40.178                             : en:01:00:40.178
01:12:02.026                             : en:01:12:02.026
01:20:38.500                             : en:01:20:38.500
01:30:09.988                             : en:01:30:09.988
01:41:05.893                             : en:01:41:05.893
01:58:28.101                             : en:01:58:28.101

精彩剧照

独眼龙/渺小的家伙们 One-Eyed.Jacks.1961.720p.BluRay.x264-FilmHD 5.46GB-2.jpg 独眼龙/渺小的家伙们 One-Eyed.Jacks.1961.720p.BluRay.x264-FilmHD 5.46GB-3.jpg 独眼龙/渺小的家伙们 One-Eyed.Jacks.1961.720p.BluRay.x264-FilmHD 5.46GB-4.jpg 独眼龙/渺小的家伙们 One-Eyed.Jacks.1961.720p.BluRay.x264-FilmHD 5.46GB-5.jpg 独眼龙/渺小的家伙们 One-Eyed.Jacks.1961.720p.BluRay.x264-FilmHD 5.46GB-6.jpg 独眼龙/渺小的家伙们 One-Eyed.Jacks.1961.720p.BluRay.x264-FilmHD 5.46GB-7.jpg
                                                                                

                                                                                                                                                  



4K321.com" target="_blank" class="relatedlink">蓝光高清网提示您 点击下方附件名称 马上开始下载

One-Eyed.Jacks.1961.720p.BluRay.x264-FilmHD.torrent ( 55.17 KB )



温馨提示:
本站资源优先使用迅雷下载,迅雷会员下载,速度基本可以跑满宽带
如果遇到无资源或者版权问题无法下载,推荐使用115网盘离线下载(点击查看115网盘离线下载教程


回复

使用道具 举报

全部回复0 显示全部楼层

声明:您在社区发表的所有信息仅代表用户个人观点,与本网站立场无关,希望各位烧友理性发言,不发表违法国家法律禁止的话题。

您需要登录后才可以回帖 登录 | 立即注册

本版积分规则

联系客服 关注微信 下载APP 返回顶部 返回列表