开启左侧

[恐怖片] 棋盘游戏 Open.Graves.2009.720p.BluRay.x264-LCHD 4.37GB

蓝鸟 发表于 2019-9-22 03:39:04 | 显示全部楼层 |阅读模式
棋盘游戏 Open.Graves.2009.720p.BluRay.x264-LCHD 4.37GB-1.jpg
◎译  名 棋盘游戏
◎片  名 Open Graves
◎年  代 2009
◎国  家 美国/西班牙
◎类  别 恐怖/惊悚
◎语  言 英语
◎上映日期 2009-09-07
◎IMDb评分  4.2/10 from 2,339 users
◎IMDb链接  http://www.imdb.com/title/tt0870937/
◎豆瓣评分 4.7/10 from 88 users
◎豆瓣链接 http://movie.douban.com/subject/2330334/
◎导  演 álvaro de Armi?án
◎主  演 Eliza Dushku
◎简  介
  一群来自世界各地的年轻人组队去海边冲浪,他们意外的发现了一个古老的手工制品――Mamba,这是一个古代的棋盘游戏,是用在西班牙宗教裁判所时期处死的一个女巫的皮肤和骨头所制成的。晚上的狂欢派对之后,他们决定拿出这个棋盘来玩一下。游戏非常有趣,但是后来他们突然发现棋盘上刻满了永世诅咒的字眼,而死亡将是最终的结局。无论逃到哪里都躲不掉,于是他们一个接着一个,按着游戏所昭示的诅咒,恐怖的死去……
Video
ID                                       : 1
Format                                   : AVC
Format/Info                              : Advanced Video Codec
Format profile                           : High@L4.1
Format settings, CABAC                   : Yes
Format settings, ReFrames                : 5 frames
Codec ID                                 : V_MPEG4/ISO/AVC
Duration                                 : 1h 28mn
Bit rate                                 : 5 598 Kbps
Width                                    : 1 280 pixels
Height                                   : 688 pixels
Display aspect ratio                     : 1.85:1
Frame rate mode                          : Constant
Frame rate                               : 23.976 fps
Color space                              : YUV
Chroma subsampling                       : 4:2:0
Bit depth                                : 8 bits
Scan type                                : Progressive
Bits/(Pixel*Frame)                       : 0.265
Stream size                              : 3.36 GiB (77%)
Writing library                          : x264 core 79 r1360 528c100
Encoding settings                        : cabac=1 / ref=5 / deblock=1:-1:-1 / analyse=0x3:0x113 / me=umh / subme=7 / psy=1 / psy_rd=1.0:0.0 / mixed_ref=1 / me_range=16 / chroma_me=1 / trellis=2 / 8x8dct=1 / cqm=0 / deadzone=21,11 / chroma_qp_offset=-2 / threads=6 / nr=0 / decimate=1 / mbaff=0 / constrained_intra=0 / bframes=3 / b_pyramid=0 / b_adapt=2 / b_bias=0 / direct=3 / wpredb=1 / wpredp=2 / keyint=250 / keyint_min=25 / scenecut=40 / rc_lookahead=40 / rc=2pass / mbtree=1 / bitrate=5598 / ratetol=1.0 / qcomp=0.60 / qpmin=10 / qpmax=51 / qpstep=4 / cplxblur=20.0 / qblur=0.5 / vbv_maxrate=50000 / vbv_bufsize=50000 / ip_ratio=1.40 / aq=1:1.00
Language                                 : English
Default                                  : Yes
Forced                                   : No
Audio
ID                                       : 2
Format                                   : DTS
Format/Info                              : Digital Theater Systems
Mode                                     : 16
Format settings, Endianness              : Big
Codec ID                                 : A_DTS
Duration                                 : 1h 28mn
Bit rate mode                            : Constant
Bit rate                                 : 1 509 Kbps
Channel(s)                               : 6 channels
Channel positions                        : Front: L C R, Side: L R, LFE
Sampling rate                            : 48.0 KHz
Bit depth                                : 16 bits
Compression mode                         : Lossy
Stream size                              : 951 MiB (21%)
Language                                 : English
Default                                  : Yes
Forced                                   : No

精彩剧照

棋盘游戏 Open.Graves.2009.720p.BluRay.x264-LCHD 4.37GB-2.jpg 棋盘游戏 Open.Graves.2009.720p.BluRay.x264-LCHD 4.37GB-3.jpg 棋盘游戏 Open.Graves.2009.720p.BluRay.x264-LCHD 4.37GB-4.jpg 棋盘游戏 Open.Graves.2009.720p.BluRay.x264-LCHD 4.37GB-5.jpg 棋盘游戏 Open.Graves.2009.720p.BluRay.x264-LCHD 4.37GB-6.jpg 棋盘游戏 Open.Graves.2009.720p.BluRay.x264-LCHD 4.37GB-7.jpg                                                                                 

                                                                                                                                                  



4K321.com" target="_blank" class="relatedlink">蓝光高清网提示您 点击下方附件名称 马上开始下载

Open.Graves.2009.720p.BluRay.x264-LCHD.torrent ( 88.03 KB )



温馨提示:
本站资源优先使用迅雷下载,迅雷会员下载,速度基本可以跑满宽带
如果遇到无资源或者版权问题无法下载,推荐使用115网盘离线下载(点击查看115网盘离线下载教程


回复

使用道具 举报

全部回复0 显示全部楼层

声明:您在社区发表的所有信息仅代表用户个人观点,与本网站立场无关,希望各位烧友理性发言,不发表违法国家法律禁止的话题。

您需要登录后才可以回帖 登录 | 立即注册

本版积分规则

联系客服 关注微信 下载APP 返回顶部 返回列表