开启左侧

[惊悚片] 开放日 Open.House.2010.720p.BluRay.x264-AVS720 4.37GB

蓝鸟 发表于 2019-9-22 03:38:14 | 显示全部楼层 |阅读模式
开放日 Open.House.2010.720p.BluRay.x264-AVS720 4.37GB-1.jpg
◎译  名 开放日
◎片  名 Open House
◎年  代 2010
◎国  家 美国
◎类  别 犯罪/剧情/惊悚
◎语  言 英语/西班牙语
◎上映日期 2010
◎IMDb评分  4.3/10 from 1,920 users
◎IMDb链接  http://www.imdb.com/title/tt1448762/
◎豆瓣评分 4.3/10 from 366 users
◎豆瓣链接 http://movie.douban.com/subject/3775159/
◎片  长 USA: 88 分钟
◎导  演 安娜·帕奎因 Andrew Paquin
◎主  演 安娜·帕奎因 Anna Paquin
      史蒂芬·莫耶 Stephen Moyer
      翠西亚·希弗 Tricia Helfer
      Jessica Collins
◎简  介
  A couple on the verge of a nasty divorce attempt to sell their empty love nest and move on with their lives, separately. After a successful open house they are horrified to discover, days later, that a potential buyer didn t leave their home. While Alice is being held captive in the basement, the unannounced house guest moves in upstairs. She senses her capture is being kept a rebellious secret. She knows her way only way out if she can only get out alive.
Video
ID                                       : 1
Format                                   : AVC
Format/Info                              : Advanced Video Codec
Format profile                           : High@L4.1
Format settings, CABAC                   : Yes
Format settings, ReFrames                : 5 frames
Codec ID                                 : V_MPEG4/ISO/AVC
Duration                                 : 1h 26mn
Bit rate                                 : 5 687 Kbps
Width                                    : 1 280 pixels
Height                                   : 544 pixels
Display aspect ratio                     : 2.35:1
Frame rate mode                          : Constant
Frame rate                               : 23.976 fps
Color space                              : YUV
Chroma subsampling                       : 4:2:0
Bit depth                                : 8 bits
Scan type                                : Progressive
Bits/(Pixel*Frame)                       : 0.341
Stream size                              : 3.37 GiB (77%)
Writing library                          : x264 core 104 r1677 19df41a
Encoding settings                        : cabac=1 / ref=5 / deblock=1:-1:-1 / analyse=0x3:0x113 / me=umh / subme=7 / psy=1 / psy_rd=1.00:0.00 / mixed_ref=1 / me_range=16 / chroma_me=1 / trellis=1 / 8x8dct=1 / cqm=0 / deadzone=21,11 / fast_pskip=1 / chroma_qp_offset=-2 / threads=6 / sliced_threads=0 / nr=0 / decimate=1 / interlaced=0 / constrained_intra=0 / bframes=3 / b_pyramid=2 / b_adapt=2 / b_bias=0 / direct=3 / weightb=1 / open_gop=0 / weightp=2 / keyint=250 / keyint_min=23 / scenecut=40 / intra_refresh=0 / rc_lookahead=40 / rc=2pass / mbtree=1 / bitrate=5687 / ratetol=1.0 / qcomp=0.60 / qpmin=10 / qpmax=51 / qpstep=4 / cplxblur=20.0 / qblur=0.5 / vbv_maxrate=50000 / vbv_bufsize=50000 / ip_ratio=1.40 / aq=1:1.00 / nal_hrd=none
Language                                 : English
Default                                  : Yes
Forced                                   : Yes
Audio
ID                                       : 2
Format                                   : DTS
Format/Info                              : Digital Theater Systems
Mode                                     : 16
Format settings, Endianness              : Big
Codec ID                                 : A_DTS
Duration                                 : 1h 26mn
Bit rate mode                            : Constant
Bit rate                                 : 1 509 Kbps
Channel(s)                               : 6 channels
Channel positions                        : Front: L C R, Side: L R, LFE
Sampling rate                            : 48.0 KHz
Bit depth                                : 16 bits
Compression mode                         : Lossy
Stream size                              : 938 MiB (21%)
Language                                 : English
Default                                  : Yes
Forced                                   : Yes
Text
ID                                       : 3
Format                                   : UTF-8
Codec ID                                 : S_TEXT/UTF8
Codec ID/Info                            : UTF-8 Plain Text
Language                                 : English
Default                                  : Yes
Forced                                   : No

精彩剧照

开放日 Open.House.2010.720p.BluRay.x264-AVS720 4.37GB-2.jpg 开放日 Open.House.2010.720p.BluRay.x264-AVS720 4.37GB-3.jpg 开放日 Open.House.2010.720p.BluRay.x264-AVS720 4.37GB-4.jpg 开放日 Open.House.2010.720p.BluRay.x264-AVS720 4.37GB-5.jpg 开放日 Open.House.2010.720p.BluRay.x264-AVS720 4.37GB-6.jpg 开放日 Open.House.2010.720p.BluRay.x264-AVS720 4.37GB-7.jpg                                                                                 

                                                                                                                                                  





4K321.com" target="_blank" class="relatedlink">蓝光高清网提示您 点击下方附件名称 马上开始下载

Open.House.2010.720p.BluRay.x264-AVS720.torrent ( 87.9 KB )



温馨提示:
本站资源优先使用迅雷下载,迅雷会员下载,速度基本可以跑满宽带
如果遇到无资源或者版权问题无法下载,推荐使用115网盘离线下载(点击查看115网盘离线下载教程


回复

使用道具 举报

全部回复0 显示全部楼层

声明:您在社区发表的所有信息仅代表用户个人观点,与本网站立场无关,希望各位烧友理性发言,不发表违法国家法律禁止的话题。

您需要登录后才可以回帖 登录 | 立即注册

本版积分规则

联系客服 关注微信 下载APP 返回顶部 返回列表