开启左侧

[纪录片] 从太空看二战 WWII.From.Space.2012.720p.BluRay.x264-BiQ 4.37GB

蓝鸟 发表于 2019-9-22 02:43:57 | 显示全部楼层 |阅读模式
? 从太空看二战 WWII.From.Space.2012.720p.BluRay.x264-BiQ 4.37GB-1.jpg
◎译  名 从太空看二战
◎片  名 WWII from Space
◎年  代 2012
◎国  家 英国
◎类  别 纪录片
◎语  言 英语
◎上映日期 2012-12-07
◎IMDb评分 7.7/10 from 148 users
◎IMDb链接 http://www.imdb.com/title/tt3351386/
◎豆瓣评分 8.2/10 from 144 users
◎豆瓣链接 http://movie.douban.com/subject/26282700/
◎片  长 88分钟
◎导  演 Simon George
◎简  介
  This spectacular two-hour special delivers the tipping points of World War II as you ve never seen them before. The key editorial feature of the program is an all-seeing CGI eye; bringing a new visual approach to the biggest conflict of all time.
Video
ID : 1
Format : AVC
Format/Info : Advanced Video Codec
Format profile : High@L4.1
Format settings, CABAC : Yes
Format settings, ReFrames : 5 frames
Codec ID : V_MPEG4/ISO/AVC
Duration : 1h 32mn
Bit rate : 5 288 Kbps
Width : 1 280 pixels
Height : 720 pixels
Display aspect ratio : 16:9
Frame rate mode : Constant
Frame rate : 23.976 fps
Color space : YUV
Chroma subsampling : 4:2:0
Bit depth : 8 bits
Scan type : Progressive
Bits/(Pixel*Frame) : 0.239
Stream size : 3.32 GiB (76%)
Writing library : x264 core 148 r2597 e86f3a1
Encoding settings : cabac=1 / ref=5 / deblock=1:0:0 / analyse=0x3:0x113 / me=umh / subme=8 / psy=1 / psy_rd=1.00:0.00 / mixed_ref=1 / me_range=16 / chroma_me=1 / trellis=1 / 8x8dct=1 / cqm=0 / deadzone=21,11 / fast_pskip=1 / chroma_qp_offset=-2 / threads=6 / lookahead_threads=1 / sliced_threads=0 / nr=0 / decimate=1 / interlaced=0 / bluray_compat=0 / constrained_intra=0 / bframes=3 / b_pyramid=2 / b_adapt=2 / b_bias=0 / direct=3 / weightb=1 / open_gop=0 / weightp=2 / keyint=250 / keyint_min=23 / scenecut=40 / intra_refresh=0 / rc_lookahead=50 / rc=2pass / mbtree=1 / bitrate=5288 / ratetol=1.0 / qcomp=0.60 / qpmin=0 / qpmax=69 / qpstep=4 / cplxblur=20.0 / qblur=0.5 / ip_ratio=1.40 / aq=1:1.00
Language : English
Default : Yes
Forced : No
DURATION : 01:32:04.352000000
NUMBER_OF_FRAMES : 132452
NUMBER_OF_BYTES : 3651771627
_STATISTICS_WRITING_APP : mkvmerge v7.7.0 (\ Six Voices\ ) 64bit built on Feb 28 2015 23:39:33
_STATISTICS_WRITING_DATE_UTC : 2015-09-19 07:37:03
_STATISTICS_TAGS : BPS DURATION NUMBER_OF_FRAMES NUMBER_OF_BYTES
Audio
ID : 3
Format : DTS
Format/Info : Digital Theater Systems
Mode : 16
Format settings, Endianness : Big
Codec ID : A_DTS
Duration : 1h 32mn
Bit rate mode : Constant
Bit rate : 1 509 Kbps
Channel(s) : 6 channels
Channel positions : Front: L C R, Side: L R, LFE
Sampling rate : 48.0 KHz
Bit depth : 24 bits
Compression mode : Lossy
Stream size : 994 MiB (22%)
Language : English
Default : Yes
Forced : No
Text
ID : 2
Format : UTF-8
Codec ID : S_TEXT/UTF8
Codec ID/Info : UTF-8 Plain Text
Title : English
Language : English
Default : No
Forced : No
Menu
00:00:00.000 : en:00:00:00.000
00:16:04.881 : en:00:16:04.881
00:29:04.660 : en:00:29:04.660
00:37:44.971 : en:00:37:44.971
00:50:01.123 : en:00:50:01.123
00:58:44.438 : en:00:58:44.438
01:12:35.268 : en:01:12:35.268
01:23:52.319 : en:01:23:52.319

精彩剧照

从太空看二战 WWII.From.Space.2012.720p.BluRay.x264-BiQ 4.37GB-2.jpg 从太空看二战 WWII.From.Space.2012.720p.BluRay.x264-BiQ 4.37GB-3.jpg 从太空看二战 WWII.From.Space.2012.720p.BluRay.x264-BiQ 4.37GB-4.jpg 从太空看二战 WWII.From.Space.2012.720p.BluRay.x264-BiQ 4.37GB-5.jpg 从太空看二战 WWII.From.Space.2012.720p.BluRay.x264-BiQ 4.37GB-6.jpg 从太空看二战 WWII.From.Space.2012.720p.BluRay.x264-BiQ 4.37GB-7.jpg







4K321.com" target="_blank" class="relatedlink">蓝光高清网提示您 点击下方附件名称 马上开始下载

WWII.From.Space.2012.720p.BluRay.x264-BiQ.torrent ( 88.06 KB )



温馨提示:
本站资源优先使用迅雷下载,迅雷会员下载,速度基本可以跑满宽带
如果遇到无资源或者版权问题无法下载,推荐使用115网盘离线下载(点击查看115网盘离线下载教程


回复

使用道具 举报

全部回复0 显示全部楼层

声明:您在社区发表的所有信息仅代表用户个人观点,与本网站立场无关,希望各位烧友理性发言,不发表违法国家法律禁止的话题。

您需要登录后才可以回帖 登录 | 立即注册

本版积分规则

联系客服 关注微信 下载APP 返回顶部 返回列表