开启左侧

[喜剧片] 永远的伍德斯托克 Always.Woodstock.2014.720p.BluRay.x264.DTS-RARBG 4.69GB

蓝鸟 发表于 2019-9-22 02:43:06 | 显示全部楼层 |阅读模式
永远的伍德斯托克 Always.Woodstock.2014.720p.BluRay.x264.DTS-RARBG 4.69GB-1.jpg
◎译  名 永远的伍德斯托克
◎片  名 Always Woodstock
◎年  代 2014
◎国  家 美国
◎类  别 喜剧/爱情/音乐
◎语  言 英语
◎上映日期 2014-11-14(美国)
◎IMDb评分 5.4/10 from 288 users
◎IMDb链接 http://www.imdb.com/title/tt1995477/
◎豆瓣评分 5.2/10 from 16 users
◎豆瓣链接 http://movie.douban.com/subject/24859102/
◎片  长 90分钟
◎导  演 Rita Merson
◎主  演 凯特蕾·萨加尔 Katey Sagal
      瑞安·古兹曼 Ryan Guzman
      布兰特妮·斯诺 Brittany Snow
      杰森·雷特 Jason Ritter
      拉莫·威利斯 Rumer Willis
      艾莉森·米勒 Allison Miller
      詹姆斯·沃克 James Wolk
      阿丽克谢·吉尔莫 Alexie Gilmore
      理查德·雷西尔 Richard Riehle
      nm3561158 Anna Anissimova
      Sean McNabb
      菲尼斯·米切尔 Finesse Mitchell
      Richard Reid
      Kate Lacey
      Jim Klock
◎简  介
  当有些神经质、苦苦挣扎的词曲作家凯瑟琳·布朗在纽约的生活就快崩溃时,她不得不去面对自己的过去。她花了整个夏天的时间在她小时候成长的家生活,最终明白了要想成功首先要做真正的自己。
Video
ID : 1
Format : AVC
Format/Info : Advanced Video Codec
Format profile : High@L4.1
Format settings, CABAC : Yes
Format settings, ReFrames : 4 frames
Codec ID : V_MPEG4/ISO/AVC
Duration : 1h 36mn
Bit rate : 5 500 Kbps
Width : 1 280 pixels
Height : 690 pixels
Display aspect ratio : 1.85:1
Original display aspect ratio : 1.85:1
Frame rate mode : Constant
Frame rate : 23.976 fps
Color space : YUV
Chroma subsampling : 4:2:0
Bit depth : 8 bits
Scan type : Progressive
Bits/(Pixel*Frame) : 0.260
Stream size : 3.57 GiB (76%)
Title : Always.Woodstock.2014.720p.BluRay.x264.DTS-RARBG
Writing library : x264 core 144 r96 40bb568
Encoding settings : cabac=1 / ref=4 / deblock=1:-2:-2 / analyse=0x3:0x113 / me=umh / subme=7 / psy=1 / psy_rd=1.00:0.15 / mixed_ref=1 / me_range=16 / chroma_me=1 / trellis=1 / 8x8dct=1 / cqm=0 / deadzone=21,11 / fast_pskip=1 / chroma_qp_offset=-3 / threads=12 / lookahead_threads=3 / sliced_threads=0 / nr=0 / decimate=1 / interlaced=0 / bluray_compat=0 / constrained_intra=0 / bframes=3 / b_pyramid=2 / b_adapt=2 / b_bias=0 / direct=3 / weightb=1 / open_gop=0 / weightp=2 / keyint=250 / keyint_min=25 / scenecut=40 / intra_refresh=0 / rc_lookahead=50 / rc=abr / mbtree=1 / bitrate=5500 / ratetol=1.0 / qcomp=0.60 / qpmin=0 / qpmax=69 / qpstep=4 / vbv_maxrate=31250 / vbv_bufsize=31250 / nal_hrd=none / filler=0 / ip_ratio=1.40 / aq=1:1.00
Language : English
Default : Yes
Forced : No
Audio
ID : 2
Format : DTS
Format/Info : Digital Theater Systems
Mode : 16
Format settings, Endianness : Big
Codec ID : A_DTS
Duration : 1h 36mn
Bit rate mode : Constant
Bit rate : 1 509 Kbps
Channel(s) : 6 channels
Channel positions : Front: L C R, Side: L R, LFE
Sampling rate : 48.0 KHz
Bit depth : 24 bits
Compression mode : Lossy
Stream size : 1.02 GiB (22%)
Title : Always.Woodstock.2014.720p.BluRay.x264.DTS-RARBG
Language : English
Default : Yes
Forced : No
Menu
00:00:00.000 : en:Chapter 01
00:11:25.685 : en:Chapter 02
00:25:08.006 : en:Chapter 03
00:38:48.117 : en:Chapter 04
00:52:18.718 : en:Chapter 05
01:06:11.550 : en:Chapter 06
01:14:44.980 : en:Chapter 07
01:23:14.656 : en:Chapter 08
01:31:31.736 : en:Chapter 09

精彩剧照

永远的伍德斯托克 Always.Woodstock.2014.720p.BluRay.x264.DTS-RARBG 4.69GB-2.jpg 永远的伍德斯托克 Always.Woodstock.2014.720p.BluRay.x264.DTS-RARBG 4.69GB-3.jpg 永远的伍德斯托克 Always.Woodstock.2014.720p.BluRay.x264.DTS-RARBG 4.69GB-4.jpg 永远的伍德斯托克 Always.Woodstock.2014.720p.BluRay.x264.DTS-RARBG 4.69GB-5.jpg 永远的伍德斯托克 Always.Woodstock.2014.720p.BluRay.x264.DTS-RARBG 4.69GB-6.jpg 永远的伍德斯托克 Always.Woodstock.2014.720p.BluRay.x264.DTS-RARBG 4.69GB-7.jpg







4K321.com" target="_blank" class="relatedlink">蓝光高清网提示您 点击下方附件名称 马上开始下载

Always.Woodstock.2014.720p.BluRay.x264.DTS-RARBG.torrent ( 94.39 KB )



温馨提示:
本站资源优先使用迅雷下载,迅雷会员下载,速度基本可以跑满宽带
如果遇到无资源或者版权问题无法下载,推荐使用115网盘离线下载(点击查看115网盘离线下载教程


回复

使用道具 举报

全部回复0 显示全部楼层

声明:您在社区发表的所有信息仅代表用户个人观点,与本网站立场无关,希望各位烧友理性发言,不发表违法国家法律禁止的话题。

您需要登录后才可以回帖 登录 | 立即注册

本版积分规则

联系客服 关注微信 下载APP 返回顶部 返回列表