开启左侧

[恐怖片] 甜蜜的家 Sweet.Home.2015.720p.BluRay.x264.DD5.1-RARBG 3.33GB

蓝鸟 发表于 2019-9-22 02:42:16 | 显示全部楼层 |阅读模式
甜蜜的家 Sweet.Home.2015.720p.BluRay.x264.DD5.1-RARBG 3.33GB-1.jpg
◎译  名 甜蜜的家
◎片  名 Sweet Home
◎年  代 2015
◎国  家 西班牙
◎类  别 恐怖
◎语  言 西班牙语
◎上映日期 2015-05-08(西班牙)
◎IMDb评分 4.8/10 from 264 users
◎IMDb链接 http://www.imdb.com/title/tt3477752/
◎导  演 Rafa Martínez
◎主  演 英格丽德·加西亚·约翰逊 Ingrid García Jonsson
      Bruno Sevilla
      José María Blanco
      Eduardo Lloveras
      Luka Peros
      Mariona Perrier
      Oriol Tarrida Tarro
      Miguel ángel Alarcón
◎简  介
  Alicia is a young real estate broker who stumbles on an old apartment building| where she plans a secret and romantic meeting with her boyfriend Simon. But they
don t know| that the lessor has sent some murderers to kill the last remaining tenant. When Alicia and Simon catching them in the act| they are forced to run| hide
and fight for their lives.
Video
ID : 1
Format : AVC
Format/Info : Advanced Video Codec
Format profile : High@L4.1
Format settings, CABAC : Yes
Format settings, ReFrames : 4 frames
Codec ID : V_MPEG4/ISO/AVC
Duration : 1h 20mn
Bit rate : 5 500 Kbps
Width : 1 280 pixels
Height : 536 pixels
Display aspect ratio : 2.40:1
Frame rate mode : Constant
Frame rate : 24.000 fps
Color space : YUV
Chroma subsampling : 4:2:0
Bit depth : 8 bits
Scan type : Progressive
Bits/(Pixel*Frame) : 0.334
Stream size : 3.01 GiB (90%)
Title : Sweet.Home.2015.720p.BluRay.x264.DD5.1-RARBG
Writing library : x264 core 144 r96 40bb568
Encoding settings : cabac=1 / ref=4 / deblock=1:-2:-2 / analyse=0x3:0x113 / me=umh / subme=7 / psy=1 / psy_rd=1.00:0.15 / mixed_ref=1 / me_range=16 / chroma_me=1 / trellis=1 / 8x8dct=1 / cqm=0 / deadzone=21,11 / fast_pskip=1 / chroma_qp_offset=-3 / threads=12 / lookahead_threads=3 / sliced_threads=0 / nr=0 / decimate=1 / interlaced=0 / bluray_compat=0 / constrained_intra=0 / bframes=3 / b_pyramid=2 / b_adapt=2 / b_bias=0 / direct=3 / weightb=1 / open_gop=0 / weightp=2 / keyint=250 / keyint_min=25 / scenecut=40 / intra_refresh=0 / rc_lookahead=50 / rc=abr / mbtree=1 / bitrate=5500 / ratetol=1.0 / qcomp=0.60 / qpmin=0 / qpmax=69 / qpstep=4 / vbv_maxrate=31250 / vbv_bufsize=31250 / nal_hrd=none / filler=0 / ip_ratio=1.40 / aq=1:1.00
Language : English
Default : Yes
Forced : No
Audio
ID : 2
Format : AC-3
Format/Info : Audio Coding 3
Mode extension : CM (complete main)
Format settings, Endianness : Big
Codec ID : A_AC3
Duration : 1h 20mn
Bit rate mode : Constant
Bit rate : 448 Kbps
Channel(s) : 6 channels
Channel positions : Front: L C R, Side: L R, LFE
Sampling rate : 48.0 KHz
Compression mode : Lossy
Stream size : 258 MiB (8%)
Title : Sweet.Home.2015.720p.BluRay.x264.DD5.1-RARBG
Language : English
Default : Yes
Forced : No
Menu
00:00:00.000 : en:Chapter 01
00:11:29.666 : en:Chapter 02
00:18:09.541 : en:Chapter 03
00:27:57.541 : en:Chapter 04
00:36:55.750 : en:Chapter 05
00:50:04.625 : en:Chapter 06
00:56:10.041 : en:Chapter 07
01:05:32.250 : en:Chapter 08

精彩剧照

甜蜜的家 Sweet.Home.2015.720p.BluRay.x264.DD5.1-RARBG 3.33GB-2.jpg 甜蜜的家 Sweet.Home.2015.720p.BluRay.x264.DD5.1-RARBG 3.33GB-3.jpg 甜蜜的家 Sweet.Home.2015.720p.BluRay.x264.DD5.1-RARBG 3.33GB-4.jpg 甜蜜的家 Sweet.Home.2015.720p.BluRay.x264.DD5.1-RARBG 3.33GB-5.jpg 甜蜜的家 Sweet.Home.2015.720p.BluRay.x264.DD5.1-RARBG 3.33GB-6.jpg 甜蜜的家 Sweet.Home.2015.720p.BluRay.x264.DD5.1-RARBG 3.33GB-7.jpg







4K321.com" target="_blank" class="relatedlink">蓝光高清网提示您 点击下方附件名称 马上开始下载

Sweet.Home.2015.720p.BluRay.x264.DD5.1-RARBG.torrent ( 67.17 KB )



温馨提示:
本站资源优先使用迅雷下载,迅雷会员下载,速度基本可以跑满宽带
如果遇到无资源或者版权问题无法下载,推荐使用115网盘离线下载(点击查看115网盘离线下载教程


回复

使用道具 举报

全部回复0 显示全部楼层

声明:您在社区发表的所有信息仅代表用户个人观点,与本网站立场无关,希望各位烧友理性发言,不发表违法国家法律禁止的话题。

您需要登录后才可以回帖 登录 | 立即注册

本版积分规则

联系客服 关注微信 下载APP 返回顶部 返回列表