开启左侧

[纪录片] 直击弯心 Hitting.the.Apex.2015.DOCU.720p.BluRay.x264.DTS-RARBG 6.26GB

蓝鸟 发表于 2019-9-22 02:41:25 | 显示全部楼层 |阅读模式
直击弯心 Hitting.the.Apex.2015.DOCU.720p.BluRay.x264.DTS-RARBG 6.26GB-1.jpg
◎译  名 直击弯心
◎片  名 Hitting The Apex
◎年  代 2015
◎国  家 美国
◎类  别 纪录片/运动
◎语  言 英语
◎上映日期 2015-9-2(英国)
◎IMDb评分 8.6/10 from 284 users
◎IMDb链接 http://www.imdb.com/title/tt4973112/
◎片  长 138分钟
◎导  演 Mark Neale
◎主  演 Jorge Lorenzo
      Jose Manuel Lorenzo
      Marc Marquez
      Brad Pitt
      Valentino Rossi
      Marco Simoncelli
      Casey Stoner
      Dani Pedrosa
◎简  介
   Hitting the Apex is the story of six fighters - six of the fastest motorcycle racers the world has ever seen - and of the fates that awaited them at the peak of
the sport. It is the story of what is at stake for all of them: all that can be won and all that can be lost when you go chasing glory at over 200mph - on a
motorcycle.
Video
ID : 1
Format : AVC
Format/Info : Advanced Video Codec
Format profile : High@L4.1
Format settings, CABAC : Yes
Format settings, ReFrames : 4 frames
Codec ID : V_MPEG4/ISO/AVC
Duration : 2h 24mn
Bit rate : 5 500 Kbps
Width : 1 280 pixels
Height : 720 pixels
Display aspect ratio : 16:9
Frame rate mode : Constant
Frame rate : 23.976 fps
Color space : YUV
Chroma subsampling : 4:2:0
Bit depth : 8 bits
Scan type : Progressive
Bits/(Pixel*Frame) : 0.249
Stream size : 5.36 GiB (86%)
Title : Hitting.the.Apex.2015.DOCU.720p.BluRay.x264.DTS-RARBG
Writing library : x264 core 144 r96 40bb568
Encoding settings : cabac=1 / ref=4 / deblock=1:-2:-2 / analyse=0x3:0x113 / me=umh / subme=7 / psy=1 / psy_rd=1.00:0.15 / mixed_ref=1 / me_range=16 / chroma_me=1 / trellis=1 / 8x8dct=1 / cqm=0 / deadzone=21,11 / fast_pskip=1 / chroma_qp_offset=-3 / threads=12 / lookahead_threads=3 / sliced_threads=0 / nr=0 / decimate=1 / interlaced=0 / bluray_compat=0 / constrained_intra=0 / bframes=3 / b_pyramid=2 / b_adapt=2 / b_bias=0 / direct=3 / weightb=1 / open_gop=0 / weightp=2 / keyint=250 / keyint_min=25 / scenecut=40 / intra_refresh=0 / rc_lookahead=50 / rc=abr / mbtree=1 / bitrate=5500 / ratetol=1.0 / qcomp=0.60 / qpmin=0 / qpmax=69 / qpstep=4 / vbv_maxrate=31250 / vbv_bufsize=31250 / nal_hrd=none / filler=0 / ip_ratio=1.40 / aq=1:1.00
Language : English
Default : Yes
Forced : No
Audio
ID : 2
Format : DTS
Format/Info : Digital Theater Systems
Mode : 16
Format settings, Endianness : Big
Codec ID : A_DTS
Duration : 2h 24mn
Bit rate mode : Constant
Bit rate : 768 Kbps
Channel(s) : 6 channels
Channel positions : Front: L C R, Side: L R, LFE
Sampling rate : 48.0 KHz
Bit depth : 24 bits
Compression mode : Lossy
Stream size : 793 MiB (12%)
Title : Hitting.the.Apex.2015.DOCU.720p.BluRay.x264.DTS-RARBG
Language : English
Default : Yes
Forced : No
Menu
00:00:00.000 : en:Chapter 00
00:03:59.239 : en:Chapter 01
00:13:19.757 : en:Chapter 02
00:25:48.838 : en:Chapter 03
00:36:53.085 : en:Chapter 04
00:46:10.809 : en:Chapter 05
01:00:28.416 : en:Chapter 06
01:11:56.562 : en:Chapter 07
01:22:13.595 : en:Chapter 08
01:33:12.169 : en:Chapter 09
01:45:37.497 : en:Chapter 10
01:57:09.105 : en:Chapter 11
02:12:01.496 : en:Chapter 12
02:22:19.239 : en:Chapter 13

精彩剧照

直击弯心 Hitting.the.Apex.2015.DOCU.720p.BluRay.x264.DTS-RARBG 6.26GB-2.jpg 直击弯心 Hitting.the.Apex.2015.DOCU.720p.BluRay.x264.DTS-RARBG 6.26GB-3.jpg 直击弯心 Hitting.the.Apex.2015.DOCU.720p.BluRay.x264.DTS-RARBG 6.26GB-4.jpg 直击弯心 Hitting.the.Apex.2015.DOCU.720p.BluRay.x264.DTS-RARBG 6.26GB-5.jpg 直击弯心 Hitting.the.Apex.2015.DOCU.720p.BluRay.x264.DTS-RARBG 6.26GB-6.jpg 直击弯心 Hitting.the.Apex.2015.DOCU.720p.BluRay.x264.DTS-RARBG 6.26GB-7.jpg






4K321.com" target="_blank" class="relatedlink">蓝光高清网提示您 点击下方附件名称 马上开始下载

Hitting.the.Apex.2015.DOCU.720p.BluRay.x264.DTS-RARBG.torrent ( 63.27 KB )



温馨提示:
本站资源优先使用迅雷下载,迅雷会员下载,速度基本可以跑满宽带
如果遇到无资源或者版权问题无法下载,推荐使用115网盘离线下载(点击查看115网盘离线下载教程


回复

使用道具 举报

全部回复0 显示全部楼层

声明:您在社区发表的所有信息仅代表用户个人观点,与本网站立场无关,希望各位烧友理性发言,不发表违法国家法律禁止的话题。

您需要登录后才可以回帖 登录 | 立即注册

本版积分规则

联系客服 关注微信 下载APP 返回顶部 返回列表