开启左侧

[纪录片] 追寻自由 The.Search.for.Freedom.2015.DOCU.720p.BluRay.x264.DTS-RARBG 3.91GB

蓝鸟 发表于 2019-9-22 01:12:11 | 显示全部楼层 |阅读模式
追寻自由 The.Search.for.Freedom.2015.DOCU.720p.BluRay.x264.DTS-RARBG 3.91GB-1.jpg
◎译  名 追寻自由
◎片  名 The.Search.for.Freedom
◎年  代 2015
◎国  家 美国
◎类  别 记录
◎语  言 英语
◎IMDb评分  6.0/10 from 10 users   
◎IMDb链接  http://www.imdb.com/title/tt4943594/
◎片  长 92 min
◎导  演 Jon Long
◎主  演 Annie Boulanger         ...        Herself
      Bruce Brown         ...        Himself
      Yvon Chouinard         ...        Himself
      Gary Fisher         ...        Himself
◎简  介
  THE SEARCH FOR FREEDOM is the story of a cultural revolution fueled by the human desire to live in the moment and do what makes you feel the most alive. We discover
how an electrifying new world came about through pure energy and imagination and the infinite possibilities of self-expression available to anyone willing to drop
in. This documentary is a visceral| visual experience told through the eyes some of the brightest pioneers| legends| visionaries and champions of surfing|
snowboarding| skiing| skateboarding| mountain biking and more.
Video
ID                                       : 1
Format                                   : AVC
Format/Info                              : Advanced Video Codec
Format profile                           : High@L4.1
Format settings, CABAC                   : Yes
Format settings, ReFrames                : 4 frames
Codec ID                                 : V_MPEG4/ISO/AVC
Duration                                 : 1h 32mn
Bit rate                                 : 5 190 Kbps
Nominal bit rate                         : 5 500 Kbps
Width                                    : 1 280 pixels
Height                                   : 720 pixels
Display aspect ratio                     : 16:9
Frame rate mode                          : Constant
Frame rate                               : 23.976 fps
Color space                              : YUV
Chroma subsampling                       : 4:2:0
Bit depth                                : 8 bits
Scan type                                : Progressive
Bits/(Pixel*Frame)                       : 0.235
Stream size                              : 3.34 GiB (85%)
Title                                    : The.Search.for.Freedom.2015.DOCU.720p.BluRay.x264.DTS-RARBG
Writing library                          : x264 core 146 r2555 0c21480
Encoding settings                        : cabac=1 / ref=4 / deblock=1:-2:-2 / analyse=0x3:0x113 / me=umh / subme=7 / psy=1 / psy_rd=1.00:0.15 / mixed_ref=1 / me_range=16 / chroma_me=1 / trellis=1 / 8x8dct=1 / cqm=0 / deadzone=21,11 / fast_pskip=1 / chroma_qp_offset=-3 / threads=12 / lookahead_threads=3 / sliced_threads=0 / nr=0 / decimate=1 / interlaced=0 / bluray_compat=0 / constrained_intra=0 / bframes=3 / b_pyramid=2 / b_adapt=2 / b_bias=0 / direct=3 / weightb=1 / open_gop=0 / weightp=2 / keyint=250 / keyint_min=25 / scenecut=40 / intra_refresh=0 / rc_lookahead=50 / rc=abr / mbtree=1 / bitrate=5500 / ratetol=1.0 / qcomp=0.60 / qpmin=0 / qpmax=69 / qpstep=4 / vbv_maxrate=31250 / vbv_bufsize=31250 / nal_hrd=none / filler=0 / ip_ratio=1.40 / aq=1:1.00
Language                                 : English
Default                                  : Yes
Forced                                   : No
Audio
ID                                       : 2
Format                                   : DTS
Format/Info                              : Digital Theater Systems
Mode                                     : 16
Format settings, Endianness              : Big
Codec ID                                 : A_DTS
Duration                                 : 1h 32mn
Bit rate mode                            : Constant
Bit rate                                 : 768 Kbps
Channel(s)                               : 6 channels
Channel positions                        : Front: L C R, Side: L R, LFE
Sampling rate                            : 48.0 KHz
Bit depth                                : 24 bits
Compression mode                         : Lossy
Stream size                              : 506 MiB (13%)
Title                                    : The.Search.for.Freedom.2015.DOCU.720p.BluRay.x264.DTS-RARBG
Language                                 : English
Default                                  : Yes
Forced                                   : No
Text #1
ID                                       : 3
Format                                   : UTF-8
Codec ID                                 : S_TEXT/UTF8
Codec ID/Info                            : UTF-8 Plain Text
Language                                 : English
Default                                  : Yes
Forced                                   : No
Text #2
ID                                       : 4
Format                                   : UTF-8
Codec ID                                 : S_TEXT/UTF8
Codec ID/Info                            : UTF-8 Plain Text
Title                                    : SDH
Language                                 : English
Default                                  : No
Forced                                   : No
Menu
00:00:00.000                             : en:Chapter 01
00:07:39.041                             : en:Chapter 02
00:13:46.408                             : en:Chapter 03
00:21:29.162                             : en:Chapter 04
00:28:01.680                             : en:Chapter 05
00:35:05.269                             : en:Chapter 06
00:42:04.396                             : en:Chapter 07
00:47:54.121                             : en:Chapter 08
00:55:52.766                             : en:Chapter 09
01:02:38.463                             : en:Chapter 10
01:09:53.731                             : en:Chapter 11
01:22:13.845                             : en:Chapter 12

精彩剧照

追寻自由 The.Search.for.Freedom.2015.DOCU.720p.BluRay.x264.DTS-RARBG 3.91GB-2.jpg 追寻自由 The.Search.for.Freedom.2015.DOCU.720p.BluRay.x264.DTS-RARBG 3.91GB-3.jpg 追寻自由 The.Search.for.Freedom.2015.DOCU.720p.BluRay.x264.DTS-RARBG 3.91GB-4.jpg 追寻自由 The.Search.for.Freedom.2015.DOCU.720p.BluRay.x264.DTS-RARBG 3.91GB-5.jpg 追寻自由 The.Search.for.Freedom.2015.DOCU.720p.BluRay.x264.DTS-RARBG 3.91GB-6.jpg 追寻自由 The.Search.for.Freedom.2015.DOCU.720p.BluRay.x264.DTS-RARBG 3.91GB-7.jpg                                                                                 




4K321.com" target="_blank" class="relatedlink">蓝光高清网提示您 点击下方附件名称 马上开始下载

The.Search.for.Freedom.2015.DOCU.720p.BluRay.x264.DTS-RARBG.torrent ( 79.01 KB )



温馨提示:
本站资源优先使用迅雷下载,迅雷会员下载,速度基本可以跑满宽带
如果遇到无资源或者版权问题无法下载,推荐使用115网盘离线下载(点击查看115网盘离线下载教程


回复

使用道具 举报

全部回复0 显示全部楼层

声明:您在社区发表的所有信息仅代表用户个人观点,与本网站立场无关,希望各位烧友理性发言,不发表违法国家法律禁止的话题。

您需要登录后才可以回帖 登录 | 立即注册

本版积分规则

联系客服 关注微信 下载APP 返回顶部 返回列表