开启左侧

[喜剧片] 始料不及 Unexpected.2015.720p.BluRay.x264.DD5.1-RARBG 3.49GB

蓝鸟 发表于 2019-9-22 01:05:22 | 显示全部楼层 |阅读模式
始料不及 Unexpected.2015.720p.BluRay.x264.DD5.1-RARBG 3.49GB-1.jpg
◎译  名 始料不及
◎片  名 Unexpected
◎年  代 2015
◎国  家 美国
◎类  别 剧情/喜剧
◎语  言 英语
◎上映日期 2015-01-25
◎IMDb评分  5.7/10 from 708 users
◎IMDb链接  http://www.imdb.com/title/tt4145304/
◎豆瓣评分 5.9/10 from 72 users
◎豆瓣链接 http://movie.douban.com/subject/26276363/
◎片  长 85分钟
◎导  演 克里斯·斯旺博格 Kris Swanberg
◎主  演 寇碧·史莫德斯 Cobie Smulders
      安德雷斯·霍尔姆 Anders Holm
      Gail Bean
      伊丽莎白·麦戈文 Elizabeth McGovern
      Michele Sweeney Abrams
      Adrian Bond
      DuShon Monique Brown
      Robyn Coffin
      Almedia Exum
      Lisa Christine Holmberg
      Heidi Johanningmeier
      J. Anthony Kopec
      Daniel Kyri
      Allison Latta
      Joshlyn Camille Lomax
◎简  介
  An inner-city high school teacher discovers she is pregnant at the same time as one of her most promising students and the two develop an unlikely friendship while
struggling to navigate their unexpected pregnancies.
Video
ID                                       : 1
Format                                   : AVC
Format/Info                              : Advanced Video Codec
Format profile                           : High@L4.1
Format settings, CABAC                   : Yes
Format settings, ReFrames                : 4 frames
Codec ID                                 : V_MPEG4/ISO/AVC
Duration                                 : 1h 25mn
Bit rate                                 : 5 500 Kbps
Width                                    : 1 280 pixels
Height                                   : 720 pixels
Display aspect ratio                     : 16:9
Frame rate mode                          : Constant
Frame rate                               : 23.976 fps
Color space                              : YUV
Chroma subsampling                       : 4:2:0
Bit depth                                : 8 bits
Scan type                                : Progressive
Bits/(Pixel*Frame)                       : 0.249
Stream size                              : 3.15 GiB (90%)
Title                                    : Unexpected.2015.720p.BluRay.x264.DD5.1-RARBG
Writing library                          : x264 core 144 r96 40bb568
Encoding settings                        : cabac=1 / ref=4 / deblock=1:-2:-2 / analyse=0x3:0x113 / me=umh / subme=7 / psy=1 / psy_rd=1.00:0.15 / mixed_ref=1 / me_range=16 / chroma_me=1 / trellis=1 / 8x8dct=1 / cqm=0 / deadzone=21,11 / fast_pskip=1 / chroma_qp_offset=-3 / threads=12 / lookahead_threads=3 / sliced_threads=0 / nr=0 / decimate=1 / interlaced=0 / bluray_compat=0 / constrained_intra=0 / bframes=3 / b_pyramid=2 / b_adapt=2 / b_bias=0 / direct=3 / weightb=1 / open_gop=0 / weightp=2 / keyint=250 / keyint_min=25 / scenecut=40 / intra_refresh=0 / rc_lookahead=50 / rc=abr / mbtree=1 / bitrate=5500 / ratetol=1.0 / qcomp=0.60 / qpmin=0 / qpmax=69 / qpstep=4 / vbv_maxrate=31250 / vbv_bufsize=31250 / nal_hrd=none / filler=0 / ip_ratio=1.40 / aq=1:1.00
Language                                 : English
Default                                  : Yes
Forced                                   : No
Audio
ID                                       : 2
Format                                   : AC-3
Format/Info                              : Audio Coding 3
Mode extension                           : CM (complete main)
Format settings, Endianness              : Big
Codec ID                                 : A_AC3
Duration                                 : 1h 25mn
Bit rate mode                            : Constant
Bit rate                                 : 448 Kbps
Channel(s)                               : 6 channels
Channel positions                        : Front: L C R, Side: L R, LFE
Sampling rate                            : 48.0 KHz
Compression mode                         : Lossy
Stream size                              : 273 MiB (8%)
Title                                    : Unexpected.2015.720p.BluRay.x264.DD5.1-RARBG
Language                                 : English
Default                                  : Yes
Forced                                   : No
Text #1
ID                                       : 3
Format                                   : UTF-8
Codec ID                                 : S_TEXT/UTF8
Codec ID/Info                            : UTF-8 Plain Text
Language                                 : English
Default                                  : Yes
Forced                                   : No
Text #2
ID                                       : 4
Format                                   : UTF-8
Codec ID                                 : S_TEXT/UTF8
Codec ID/Info                            : UTF-8 Plain Text
Title                                    : SDH
Language                                 : English
Default                                  : No
Forced                                   : No
Menu
00:00:00.000                             : en:Chapter 00
00:05:48.222                             : en:Chapter 01
00:14:32.413                             : en:Chapter 02
00:22:34.978                             : en:Chapter 03
00:30:16.981                             : en:Chapter 04
00:37:03.596                             : en:Chapter 05
00:44:29.792                             : en:Chapter 06
00:51:17.783                             : en:Chapter 07
00:59:06.793                             : en:Chapter 08
01:05:31.177                             : en:Chapter 09
01:14:04.481                             : en:Chapter 10
01:21:18.874                             : en:Chapter 11

精彩剧照

始料不及 Unexpected.2015.720p.BluRay.x264.DD5.1-RARBG 3.49GB-2.jpg 始料不及 Unexpected.2015.720p.BluRay.x264.DD5.1-RARBG 3.49GB-3.jpg 始料不及 Unexpected.2015.720p.BluRay.x264.DD5.1-RARBG 3.49GB-4.jpg 始料不及 Unexpected.2015.720p.BluRay.x264.DD5.1-RARBG 3.49GB-5.jpg 始料不及 Unexpected.2015.720p.BluRay.x264.DD5.1-RARBG 3.49GB-6.jpg 始料不及 Unexpected.2015.720p.BluRay.x264.DD5.1-RARBG 3.49GB-7.jpg                                                                                 

                                                                                                                                                  





4K321.com" target="_blank" class="relatedlink">蓝光高清网提示您 点击下方附件名称 马上开始下载

Unexpected.2015.720p.BluRay.x264.DD5.1-RARBG.torrent ( 70.47 KB )



温馨提示:
本站资源优先使用迅雷下载,迅雷会员下载,速度基本可以跑满宽带
如果遇到无资源或者版权问题无法下载,推荐使用115网盘离线下载(点击查看115网盘离线下载教程


回复

使用道具 举报

全部回复0 显示全部楼层

声明:您在社区发表的所有信息仅代表用户个人观点,与本网站立场无关,希望各位烧友理性发言,不发表违法国家法律禁止的话题。

您需要登录后才可以回帖 登录 | 立即注册

本版积分规则

联系客服 关注微信 下载APP 返回顶部 返回列表