开启左侧

[喜剧片] 结果 Results.2015.720p.BluRay.x264.DTS-RARBG 5.16GB

蓝鸟 发表于 2019-9-22 01:01:10 | 显示全部楼层 |阅读模式
结果 Results.2015.720p.BluRay.x264.DTS-RARBG 5.16GB-1.jpg
◎译  名 结果
◎片  名 Results
◎年  代 2015
◎国  家 美国
◎类  别 喜剧
◎语  言 英语
◎上映日期 2015年5月29日(美国)
◎IMDb评分  5.8/10 from 1,367 users
◎IMDb链接  http://www.imdb.com/title/tt3824412/
◎豆瓣评分 5.5/10 from 14 users
◎豆瓣链接 http://movie.douban.com/subject/25947678/
◎片  长 105分钟
◎导  演 安德鲁·布西内斯克 Andrew Bujalski
◎主  演 盖·皮尔斯 Guy Pearce
      寇碧·史莫德斯 Cobie Smulders
      安东尼·迈克尔·豪尔 Anthony Michael Hall
      乔瓦尼·瑞比西 Giovanni Ribisi
◎简  介
  两个私人健身教练因为一位刚刚离异的富豪学员产生了交集,挥洒的汗水见证了一段冤家爱情火花的迸发。
Video
ID                                       : 1
Format                                   : AVC
Format/Info                              : Advanced Video Codec
Format profile                           : High@L4.1
Format settings, CABAC                   : Yes
Format settings, ReFrames                : 4 frames
Codec ID                                 : V_MPEG4/ISO/AVC
Duration                                 : 1h 44mn
Bit rate                                 : 5 500 Kbps
Width                                    : 1 280 pixels
Height                                   : 690 pixels
Display aspect ratio                     : 1.85:1
Original display aspect ratio            : 1.85:1
Frame rate mode                          : Constant
Frame rate                               : 23.976 fps
Color space                              : YUV
Chroma subsampling                       : 4:2:0
Bit depth                                : 8 bits
Scan type                                : Progressive
Bits/(Pixel*Frame)                       : 0.260
Stream size                              : 3.96 GiB (77%)
Title                                    : Results.2015.720p.BluRay.x264.DTS-RARBG
Writing library                          : x264 core 146 r2555 0c21480
Encoding settings                        : cabac=1 / ref=4 / deblock=1:-2:-2 / analyse=0x3:0x113 / me=umh / subme=7 / psy=1 / psy_rd=1.00:0.15 / mixed_ref=1 / me_range=16 / chroma_me=1 / trellis=1 / 8x8dct=1 / cqm=0 / deadzone=21,11 / fast_pskip=1 / chroma_qp_offset=-3 / threads=12 / lookahead_threads=3 / sliced_threads=0 / nr=0 / decimate=1 / interlaced=0 / bluray_compat=0 / constrained_intra=0 / bframes=3 / b_pyramid=2 / b_adapt=2 / b_bias=0 / direct=3 / weightb=1 / open_gop=0 / weightp=2 / keyint=250 / keyint_min=25 / scenecut=40 / intra_refresh=0 / rc_lookahead=50 / rc=abr / mbtree=1 / bitrate=5500 / ratetol=1.0 / qcomp=0.60 / qpmin=0 / qpmax=69 / qpstep=4 / vbv_maxrate=31250 / vbv_bufsize=31250 / nal_hrd=none / filler=0 / ip_ratio=1.40 / aq=1:1.00
Language                                 : English
Default                                  : Yes
Forced                                   : No
Audio
ID                                       : 2
Format                                   : DTS
Format/Info                              : Digital Theater Systems
Mode                                     : 16
Format settings, Endianness              : Big
Codec ID                                 : A_DTS
Duration                                 : 1h 44mn
Bit rate mode                            : Constant
Bit rate                                 : 1 509 Kbps
Channel(s)                               : 6 channels
Channel positions                        : Front: L C R, Side: L R, LFE
Sampling rate                            : 48.0 KHz
Bit depth                                : 24 bits
Compression mode                         : Lossy
Stream size                              : 1.10 GiB (21%)
Title                                    : Results.2015.720p.BluRay.x264.DTS-RARBG
Language                                 : English
Default                                  : Yes
Forced                                   : No

精彩剧照

结果 Results.2015.720p.BluRay.x264.DTS-RARBG 5.16GB-2.jpg 结果 Results.2015.720p.BluRay.x264.DTS-RARBG 5.16GB-3.jpg 结果 Results.2015.720p.BluRay.x264.DTS-RARBG 5.16GB-4.jpg 结果 Results.2015.720p.BluRay.x264.DTS-RARBG 5.16GB-5.jpg 结果 Results.2015.720p.BluRay.x264.DTS-RARBG 5.16GB-6.jpg 结果 Results.2015.720p.BluRay.x264.DTS-RARBG 5.16GB-7.jpg                                                                                 

                                                                                                                                                  



4K321.com" target="_blank" class="relatedlink">蓝光高清网提示您 点击下方附件名称 马上开始下载

Results.2015.720p.BluRay.x264.DTS-RARBG.torrent ( 52.27 KB )



温馨提示:
本站资源优先使用迅雷下载,迅雷会员下载,速度基本可以跑满宽带
如果遇到无资源或者版权问题无法下载,推荐使用115网盘离线下载(点击查看115网盘离线下载教程


回复

使用道具 举报

全部回复0 显示全部楼层

声明:您在社区发表的所有信息仅代表用户个人观点,与本网站立场无关,希望各位烧友理性发言,不发表违法国家法律禁止的话题。

您需要登录后才可以回帖 登录 | 立即注册

本版积分规则

联系客服 关注微信 下载APP 返回顶部 返回列表