开启左侧

[动作片] 连环劫/回马枪 Chain.of.Command.2015.720p.BluRay.x264.DTS-RARBG 4.17GB

蓝鸟 发表于 2019-9-22 00:59:28 | 显示全部楼层 |阅读模式 来自: 中国重庆
连环劫/回马枪 Chain.of.Command.2015.720p.BluRay.x264.DTS-RARBG 4.17GB-1.jpg
◎译  名 连环劫/回马枪
◎片  名 Chain of Command
◎年  代 2015
◎国  家 美国
◎类  别 动作/惊悚
◎语  言 英语
◎上映日期 2015-09-08
◎IMDb评分  4.0/10 from 130 users
◎IMDb链接  http://www.imdb.com/title/tt4340720/
◎片  长 88 分钟
◎导  演 Kevin Carraway
◎主  演 Michael Jai White
      Max Ryan
      Steve Austin
◎简  介
  Special Operative James Webster (Michael Jai White  Blood and Bone |  The Dark Knight ) just returned home from duty| only to witness the brutal slaying of his
brother. Webster immediately tries to retaliate and hunt down the perpetrators| but as he delves deeper into the secret world of corruption and murder| he finds
himself at the center of a deadly conspiracy that cuts deep inside the walls of the US Government. With the most ruthless military assassin (Steve Austin  The
Expendables |  WWF Raw ) hot on his trail| Webster must expose the corrupt high-ranking officials before he becomes just another victim of the nefarious plot.
Video
ID                                       : 1
Format                                   : AVC
Format/Info                              : Advanced Video Codec
Format profile                           : High@L4.1
Format settings, CABAC                   : Yes
Format settings, ReFrames                : 4 frames
Codec ID                                 : V_MPEG4/ISO/AVC
Duration                                 : 1h 27mn
Bit rate                                 : 5 167 Kbps
Nominal bit rate                         : 5 500 Kbps
Width                                    : 1 280 pixels
Height                                   : 720 pixels
Display aspect ratio                     : 16:9
Frame rate mode                          : Constant
Frame rate                               : 23.976 fps
Color space                              : YUV
Chroma subsampling                       : 4:2:0
Bit depth                                : 8 bits
Scan type                                : Progressive
Bits/(Pixel*Frame)                       : 0.234
Stream size                              : 3.17 GiB (76%)
Title                                    : Chain.of.Command.2015.720p.BluRay.x264.DTS-RARBG
Writing library                          : x264 core 144 r96 40bb568
Encoding settings                        : cabac=1 / ref=4 / deblock=1:-2:-2 / analyse=0x3:0x113 / me=umh / subme=7 / psy=1 / psy_rd=1.00:0.15 / mixed_ref=1 / me_range=16 / chroma_me=1 / trellis=1 / 8x8dct=1 / cqm=0 / deadzone=21,11 / fast_pskip=1 / chroma_qp_offset=-3 / threads=12 / lookahead_threads=3 / sliced_threads=0 / nr=0 / decimate=1 / interlaced=0 / bluray_compat=0 / constrained_intra=0 / bframes=3 / b_pyramid=2 / b_adapt=2 / b_bias=0 / direct=3 / weightb=1 / open_gop=0 / weightp=2 / keyint=250 / keyint_min=25 / scenecut=40 / intra_refresh=0 / rc_lookahead=50 / rc=abr / mbtree=1 / bitrate=5500 / ratetol=1.0 / qcomp=0.60 / qpmin=0 / qpmax=69 / qpstep=4 / vbv_maxrate=31250 / vbv_bufsize=31250 / nal_hrd=none / filler=0 / ip_ratio=1.40 / aq=1:1.00
Language                                 : English
Default                                  : Yes
Forced                                   : No
Audio
ID                                       : 2
Format                                   : DTS
Format/Info                              : Digital Theater Systems
Mode                                     : 16
Format settings, Endianness              : Big
Codec ID                                 : A_DTS
Duration                                 : 1h 27mn
Bit rate mode                            : Constant
Bit rate                                 : 1 509 Kbps
Channel(s)                               : 6 channels
Channel positions                        : Front: L C R, Side: L R, LFE
Sampling rate                            : 48.0 KHz
Bit depth                                : 24 bits
Compression mode                         : Lossy
Stream size                              : 947 MiB (22%)
Title                                    : Chain.of.Command.2015.720p.BluRay.x264.DTS-RARBG
Language                                 : English
Default                                  : Yes
Forced                                   : No

精彩剧照

连环劫/回马枪 Chain.of.Command.2015.720p.BluRay.x264.DTS-RARBG 4.17GB-2.jpg 连环劫/回马枪 Chain.of.Command.2015.720p.BluRay.x264.DTS-RARBG 4.17GB-3.jpg 连环劫/回马枪 Chain.of.Command.2015.720p.BluRay.x264.DTS-RARBG 4.17GB-4.jpg 连环劫/回马枪 Chain.of.Command.2015.720p.BluRay.x264.DTS-RARBG 4.17GB-5.jpg 连环劫/回马枪 Chain.of.Command.2015.720p.BluRay.x264.DTS-RARBG 4.17GB-6.jpg 连环劫/回马枪 Chain.of.Command.2015.720p.BluRay.x264.DTS-RARBG 4.17GB-7.jpg                                                                                 

                                                                                                                                                  




蓝光高清网提示您 点击下方附件名称 马上开始下载

Chain.of.Command.2015.720p.BluRay.x264.DTS-RARBG.torrent ( 84.14 KB )



温馨提示:
本站资源优先使用迅雷下载,迅雷会员下载,速度基本可以跑满宽带
如果遇到无资源或者版权问题无法下载,推荐使用115网盘离线下载(点击查看115网盘离线下载教程


加入蓝光高清网VIP会员  无限制下载本站所有资源---点这里

资源下载、资源播放、字幕使用、无法下载等常见问题---点这里
回复

使用道具 举报

全部回复0 显示全部楼层

声明:您在社区发表的所有信息仅代表用户个人观点,与本网站立场无关,希望各位烧友理性发言,不发表违法国家法律禁止的话题。

您需要登录后才可以回帖 登录 | 立即注册

本版积分规则

联系客服 关注微信 下载APP 返回顶部 返回列表