开启左侧

[犯罪片] 鬣狗警察 Hyena.2014.720p.BluRay.x264.DTS-RARBG 5.37GB

蓝鸟 发表于 2019-9-22 00:55:05 | 显示全部楼层 |阅读模式
鬣狗警察 Hyena.2014.720p.BluRay.x264.DTS-RARBG 5.37GB-1.jpg
◎译  名 鬣狗警察
◎片  名 Hyena
◎年  代 2014
◎国  家 英国
◎类  别 剧情/犯罪
◎语  言 英语
◎上映日期 2015-03-06(英国)/2015-05-01(美国)
◎IMDb评分  6.2/10 from 1,137 users
◎IMDb链接  http://www.imdb.com/title/tt1837574/
◎豆瓣评分 6.2/10 from 22 users
◎豆瓣链接 http://movie.douban.com/subject/25889090/
◎片  长 112分钟
◎导  演 Gerard Johnson
◎主  演 彼得·费迪南多 Peter Ferdinando
      斯蒂芬·格拉汉姆 Stephen Graham
      尼尔·马斯克尔 Neil Maskell
      Elisa Lasowski
      MyAnna Buring
◎简  介
  “Hyena”即是鬣狗,一种普遍群体性觅食、依靠腐肉为生的动物。电影中的“Hyena”,伦敦警察迈克尔·兰度(Peter Ferdinando)领导着一只由马丁(Neil Maskell),凯斯(Tony Pitts)和克里斯(Gordon Brown)组成的四人小队。穿梭在底层伦敦各式各样的贩毒场所,他们最主要的“工作”是找到愿意合作的毒贩,从中获取非法利益。
Video
ID                                       : 1
Format                                   : AVC
Format/Info                              : Advanced Video Codec
Format profile                           : High@L4.1
Format settings, CABAC                   : Yes
Format settings, ReFrames                : 4 frames
Codec ID                                 : V_MPEG4/ISO/AVC
Duration                                 : 1h 52mn
Bit rate                                 : 5 190 Kbps
Nominal bit rate                         : 5 500 Kbps
Width                                    : 1 280 pixels
Height                                   : 534 pixels
Display aspect ratio                     : 2.40:1
Original display aspect ratio            : 2.40:1
Frame rate mode                          : Constant
Frame rate                               : 24.000 fps
Color space                              : YUV
Chroma subsampling                       : 4:2:0
Bit depth                                : 8 bits
Scan type                                : Progressive
Bits/(Pixel*Frame)                       : 0.316
Stream size                              : 4.08 GiB (76%)
Title                                    : Hyena.2014.720p.BluRay.x264.DTS-RARBG
Writing library                          : x264 core 146 r2555 0c21480
Encoding settings                        : cabac=1 / ref=4 / deblock=1:-2:-2 / analyse=0x3:0x113 / me=umh / subme=7 / psy=1 / psy_rd=1.00:0.15 / mixed_ref=1 / me_range=16 / chroma_me=1 / trellis=1 / 8x8dct=1 / cqm=0 / deadzone=21,11 / fast_pskip=1 / chroma_qp_offset=-3 / threads=12 / lookahead_threads=3 / sliced_threads=0 / nr=0 / decimate=1 / interlaced=0 / bluray_compat=0 / constrained_intra=0 / bframes=3 / b_pyramid=2 / b_adapt=2 / b_bias=0 / direct=3 / weightb=1 / open_gop=0 / weightp=2 / keyint=250 / keyint_min=25 / scenecut=40 / intra_refresh=0 / rc_lookahead=50 / rc=abr / mbtree=1 / bitrate=5500 / ratetol=1.0 / qcomp=0.60 / qpmin=0 / qpmax=69 / qpstep=4 / vbv_maxrate=31250 / vbv_bufsize=31250 / nal_hrd=none / filler=0 / ip_ratio=1.40 / aq=1:1.00
Language                                 : English
Default                                  : Yes
Forced                                   : No
Audio
ID                                       : 2
Format                                   : DTS
Format/Info                              : Digital Theater Systems
Mode                                     : 16
Format settings, Endianness              : Big
Codec ID                                 : A_DTS
Duration                                 : 1h 52mn
Bit rate mode                            : Constant
Bit rate                                 : 1 509 Kbps
Channel(s)                               : 6 channels
Channel positions                        : Front: L C R, Side: L R, LFE
Sampling rate                            : 48.0 KHz
Bit depth                                : 24 bits
Compression mode                         : Lossy
Stream size                              : 1.19 GiB (22%)
Language                                 : English
Default                                  : Yes
Forced                                   : No
Text
ID                                       : 3
Format                                   : UTF-8
Codec ID                                 : S_TEXT/UTF8
Codec ID/Info                            : UTF-8 Plain Text
Language                                 : English
Default                                  : Yes
Forced                                   : No
Menu
00:00:00.000                             : en:Chapter 01
00:08:44.458                             : en:Chapter 02
00:19:15.708                             : en:Chapter 03
00:26:14.416                             : en:Chapter 04
00:35:18.041                             : en:Chapter 05
00:46:03.583                             : en:Chapter 06
00:56:42.083                             : en:Chapter 07
01:08:36.041                             : en:Chapter 08
01:19:43.666                             : en:Chapter 09
01:28:57.666                             : en:Chapter 10
01:35:56.541                             : en:Chapter 11
01:48:00.250                             : en:Chapter 12

精彩剧照

鬣狗警察 Hyena.2014.720p.BluRay.x264.DTS-RARBG 5.37GB-2.jpg 鬣狗警察 Hyena.2014.720p.BluRay.x264.DTS-RARBG 5.37GB-3.jpg 鬣狗警察 Hyena.2014.720p.BluRay.x264.DTS-RARBG 5.37GB-4.jpg 鬣狗警察 Hyena.2014.720p.BluRay.x264.DTS-RARBG 5.37GB-5.jpg 鬣狗警察 Hyena.2014.720p.BluRay.x264.DTS-RARBG 5.37GB-6.jpg 鬣狗警察 Hyena.2014.720p.BluRay.x264.DTS-RARBG 5.37GB-7.jpg
                                                                                

                                                                                                                                                  






4K321.com" target="_blank" class="relatedlink">蓝光高清网提示您 点击下方附件名称 马上开始下载

Hyena.2014.720p.BluRay.x264.DTS-RARBG.torrent ( 54.4 KB )



温馨提示:
本站资源优先使用迅雷下载,迅雷会员下载,速度基本可以跑满宽带
如果遇到无资源或者版权问题无法下载,推荐使用115网盘离线下载(点击查看115网盘离线下载教程


回复

使用道具 举报

全部回复0 显示全部楼层

声明:您在社区发表的所有信息仅代表用户个人观点,与本网站立场无关,希望各位烧友理性发言,不发表违法国家法律禁止的话题。

您需要登录后才可以回帖 登录 | 立即注册

本版积分规则

联系客服 关注微信 下载APP 返回顶部 返回列表