开启左侧

[科幻片] 复仇者联盟2:奥创纪元[内封双语字幕].Avengers.Age.of.Ultron.2015.720p.BluRay.x264.DTS-SHOW 6.7GB

蓝鸟 发表于 2019-9-22 00:24:19 | 显示全部楼层 |阅读模式





◎译  名 复仇者联盟2:奥创纪元/复仇者联盟2/复仇者联盟:奥创时代/复联2
◎片  名 Avengers: Age of Ultron
◎年  代 2015
◎国  家 美国
◎类  别 动作/科幻/奇幻/冒险
◎语  言 英语
◎字  幕 英文...
◎IMDb评分  7.8/10 from 283,394 users
◎IMDB链接 http://www.imdb.com/title/tt2395427/
◎文件格式 x264 + DTS
◎视频尺寸 1920x808
◎文件大小 10.99 GiB
◎片  长 2h 21mn
◎导  演 乔斯·韦登 Joss Whedon
◎主  演 小罗伯特·唐尼 Robert Downey Jr.
      克里斯·海姆斯沃斯 Chris Hemsworth
      马克·鲁弗洛 Mark Ruffalo
      克里斯·埃文斯 Chris Evans
      斯嘉丽·约翰逊 Scarlett Johansson
      杰瑞米·雷纳 Jeremy Renner
      詹姆斯·斯派德 James Spader
      塞缪尔·杰克逊 Samuel L. Jackson
      唐·钱德尔 Don Cheadle
      亚伦·泰勒-约翰逊 Aaron Taylor-Johnson
      伊丽莎白·奥尔森 Elizabeth Olsen
      保罗·贝坦尼 Paul Bettany
      寇碧·史莫德斯 Cobie Smulders
      安东尼·麦凯 Anthony Mackie
      海莉·阿特维尔 Hayley Atwell
      伊德里斯·艾尔巴 Idris Elba
      斯特兰·斯卡斯加德 Stellan Skarsg?rd
      金秀贤 Soo-hyun Kim
      托马斯·克莱舒曼 Thomas Kretschmann
      安迪·瑟金斯 Andy Serkis
      朱莉·德尔佩 Julie Delpy
      斯坦·李 Stan Lee
      亨利·古德曼 Henry Goodman
      多米尼克·普罗沃斯特-切克利 Dominique Provost-Chalkley
      艾萨克·安德鲁斯 Isaac Andrews


◎简  介


  托尼·斯塔克(小罗伯特·唐尼 Robert Downey Jr. 饰)试图重启一个已经废弃的维和项目,不料该项目却成为危机导火索。世上最强大的超级英雄——钢铁侠、美国队长(克里斯·埃文斯 Chris Evans 饰)、雷神(克里斯·海姆斯沃斯 Chris Hemsworth 饰)、绿巨人(马克·鲁弗洛 Mark Ruffalo 饰)、黑寡妇(斯嘉丽·约翰逊 Scarlett Johansson 饰)和鹰眼(杰瑞米·雷纳 Jeremy Renner 饰),不得不接受终极考验,拯救危在旦夕的地球。神秘反派奥创(詹姆斯·斯派德 James Spader 配音)逐渐崛起,超级英雄们必须重新集结,竭力阻止奥创实施人类灭绝计划。战斗中,复仇者联盟成员们还遇到了两个新人物——旺达·马克西莫夫(伊丽莎白·奥尔森 Elizabeth Olsen 饰)和皮特罗·马克西莫夫(亚伦·泰勒-约翰逊 Aaron Taylor-Johnson 饰),以及以全新面目归来的老朋友——幻视(保罗·贝坦尼 Paul Bettany 饰)。

  世界秩序濒临崩溃,复仇者联盟必须阻止奥创的阴谋。强敌不断出现,一场空前绝后的全球浩战即将展开……

花絮

.《复仇者联盟:奥创时代》这个名字和漫威2013年新出的一套10卷本漫画同名,但是,电影故事不会根据漫画改编,导演乔斯·韦登和编剧们早就已经按他们的规划写剧本了。

.《复仇者联盟》中由汤姆·希德勒斯顿扮演的反派“洛基”不会出现在本片中。

.饰演黑寡妇的斯嘉丽·约翰逊在电影拍摄期间怀有身孕,导演并没有因此削减她的戏份,而是请了三个替身共同完成较激烈的打戏,会在她们的脸部表情关键点上标记,方便后期合成处理表情捕捉。

.斯坦·李称在自己所有的客串中,他最喜欢在该片中的客串。

.绿巨人浩克本次有了一条弹力裤。他把这条裤子穿在衣服底下,这样下次变身时就不会再发生尴尬情况了。这条高科技短裤由超细纤维制成,可以随意伸展。

.托尼·斯塔克升级了鹰眼的装备,使他有各式箭头配合各种目的使用。部分箭头的作用在电影中有明确展示,部分则会让观众看得目瞪口呆。箭筒也变得更高级——更自动化、装箭速度更快,可装九支箭。

.鹰眼的弓也得到了改良,从黑色被漆成了红褐色,并增加了红外线瞄准和声波瞄准装置。

.美国队长的盾牌同样有令人眼前一亮的变化。如今它可以被随时召回,就像钢铁侠的装甲一样。盾牌背面的皮带扣被磁铁吸引装置所取代,它们被固定在美队的长手套上。

.托尼·斯塔克也给黑寡妇装备了炫酷的新武器——一对战斗短棍,由菲律宾竹节棍演化而来。黑寡妇的短棍需要充电,所以当她戳刺的时候,不仅会攻击敌人,还会迸发强大的电力。

.艺术指导查尔斯·伍德及其团队建了一个全新复仇者大楼,是漫威影史上最大的场景。片中大量剧情都发生在不同楼层。巨大落地窗尽收纽约风景,昆式喷气机的机库近在眼前。数个环境相连,可上下移动。

.复仇者大楼满足了故事需要。大楼由托尼·斯塔克设计建造,复仇者们在这里制定作战计划、谈谈生意、学习或休息。这里有一个客厅、三个实验室和一个机械室、一间健身房、一个休息区及一个衣帽间。

.为了让故事有更真实的背景,并展现复联护卫全世界的精髓,《复仇者联盟2:奥创纪元》辗转多个地方取景。英国、南非、意大利、韩国等多个地方都留下了剧组的足迹,大大增加了故事的广度和深度。

.在韩国拍摄的部分对韩国女演员秀贤来说意义非凡。她成长于首尔,在影片中饰演赵海伦博士一角。《复仇者联盟2:奥创纪元》部分场景摄于韩国这一点让她感到非常自豪。

.首尔拍摄的独特之处在于启用了无人机和遥控汽车进行拍摄,因为某些地方连摄影师和直升飞机都无法到达。影片的拍摄得到了韩国无人机驾驶冠军和遥控汽车大赛冠军的大力支持。

获奖记录

青少年选择奖(2015;第17届)

获奖
·青少年选择奖-最抢戏明星克里斯·埃文斯 Chris Evans  

提名
·青少年选择奖-最佳科幻/奇幻电影男演员小罗伯特·唐尼 Robert Downey Jr.  
·青少年选择奖-最佳科幻/奇幻电影男演员克里斯·埃文斯 Chris Evans  
·青少年选择奖-最佳科幻/奇幻电影女演员斯嘉丽·约翰逊 Scarlett Johansson  
·青少年选择奖-最佳科幻/奇幻电影
·青少年选择奖-最具突破影人伊丽莎白·奥尔森 Elizabeth Olsen


该资源信息参数

  1. General
  2. Unique ID                      : 199817847703079169241705259877425629575 (0x965384837E6C9F07AC960BD9480E4987)
  3. Complete name                  : Avengers.Age.of.Ultron.2015.720p.BluRay.x264.DTS-SHOW.mkv
  4. Format                         : Matroska
  5. Format version                 : Version 4 / Version 2
  6. File size                      : 6.56 GiB
  7. Duration                       : 2h 21mn
  8. Overall bit rate               : 6 642 Kbps
  9. Encoded date                   : UTC 2015-09-08 02:43:58
  10. Writing application            : mkvmerge v7.5.0 ("Glass Culture") 64bit built on Jan  4 2015 16:48:44
  11. Writing library                : libebml v1.3.1 + libmatroska v1.4.2
  12. _STATISTICS_WRITING_APP        : mkvmerge v7.5.0 ("Glass Culture") 64bit built on Jan  4 2015 16:48:44
  13. _STATISTICS_WRITING_DATE_UTC   : 2015-09-08 02:43:58
  14. _STATISTICS_TAGS               : BPS DURATION NUMBER_OF_FRAMES NUMBER_OF_BYTES
  15. DURATION                       : 02:13:27.740000000
  16. NUMBER_OF_FRAMES               : 1946
  17. NUMBER_OF_BYTES                : 110315

  18. Video
  19. ID                             : 1
  20. Format                         : AVC
  21. Format/Info                    : Advanced Video Codec
  22. Format profile                 : High@L4.1
  23. Format settings, CABAC         : Yes
  24. Format settings, ReFrames      : 5 frames
  25. Codec ID                       : V_MPEG4/ISO/AVC
  26. Duration                       : 2h 21mn
  27. Bit rate                       : 5 130 Kbps
  28. Width                          : 1 280 pixels
  29. Height                         : 536 pixels
  30. Display aspect ratio           : 2.40:1
  31. Frame rate mode                : Constant
  32. Frame rate                     : 23.976 fps
  33. Color space                    : YUV
  34. Chroma subsampling             : 4:2:0
  35. Bit depth                      : 8 bits
  36. Scan type                      : Progressive
  37. Bits/(Pixel*Frame)             : 0.312
  38. Stream size                    : 4.94 GiB (75%)
  39. Writing library                : x264 core 148 r2597 e86f3a1
  40. Encoding settings              : cabac=1 / ref=5 / deblock=1:0:0 / analyse=0x3:0x133 / me=umh / subme=7 / psy=1 / psy_rd=1.00:0.00 / mixed_ref=1 / me_range=16 / chroma_me=1 / trellis=1 / 8x8dct=1 / cqm=0 / deadzone=21,11 / fast_pskip=0 / chroma_qp_offset=-2 / threads=12 / lookahead_threads=2 / sliced_threads=0 / nr=0 / decimate=1 / interlaced=0 / bluray_compat=0 / constrained_intra=0 / bframes=3 / b_pyramid=2 / b_adapt=1 / b_bias=0 / direct=1 / weightb=1 / open_gop=0 / weightp=2 / keyint=250 / keyint_min=23 / scenecut=40 / intra_refresh=0 / rc_lookahead=40 / rc=2pass / mbtree=1 / bitrate=5130 / ratetol=1.0 / qcomp=0.60 / qpmin=0 / qpmax=69 / qpstep=4 / cplxblur=20.0 / qblur=0.5 / ip_ratio=1.40 / aq=1:1.00
  41. Language                       : English
  42. Default                        : Yes
  43. Forced                         : No
  44. _STATISTICS_WRITING_APP        : mkvmerge v7.5.0 ("Glass Culture") 64bit built on Jan  4 2015 16:48:44
  45. _STATISTICS_WRITING_DATE_UTC   : 2015-09-08 02:43:58
  46. _STATISTICS_TAGS               : BPS DURATION NUMBER_OF_FRAMES NUMBER_OF_BYTES
  47. DURATION                       : 02:21:18.734000000
  48. NUMBER_OF_FRAMES               : 203286
  49. NUMBER_OF_BYTES                : 5436457084

  50. Audio
  51. ID                             : 2
  52. Format                         : DTS
  53. Format/Info                    : Digital Theater Systems
  54. Mode                           : 16
  55. Format settings, Endianness    : Big
  56. Codec ID                       : A_DTS
  57. Duration                       : 2h 21mn
  58. Bit rate mode                  : Constant
  59. Bit rate                       : 1 509 Kbps
  60. Channel(s)                     : 6 channels
  61. Channel positions              : Front: L C R, Side: L R, LFE
  62. Sampling rate                  : 48.0 KHz
  63. Bit depth                      : 24 bits
  64. Compression mode               : Lossy
  65. Stream size                    : 1.49 GiB (23%)
  66. Language                       : English
  67. Default                        : Yes
  68. Forced                         : No

  69. Text #1
  70. ID                             : 3
  71. Format                         : UTF-8
  72. Codec ID                       : S_TEXT/UTF8
  73. Codec ID/Info                  : UTF-8 Plain Text
  74. Title                          : ????
  75. Language                       : Chinese
  76. Default                        : Yes
  77. Forced                         : No

  78. Text #2
  79. ID                             : 4
  80. Format                         : UTF-8
  81. Codec ID                       : S_TEXT/UTF8
  82. Codec ID/Info                  : UTF-8 Plain Text
  83. Title                          : ????
  84. Language                       : Chinese
  85. Default                        : No
  86. Forced                         : No

  87. Text #3
  88. ID                             : 5
  89. Format                         : ASS
  90. Codec ID                       : S_TEXT/ASS
  91. Codec ID/Info                  : Advanced Sub Station Alpha
  92. Compression mode               : Lossless
  93. Title                          : ??????
  94. Language                       : Chinese
  95. Default                        : No
  96. Forced                         : No

  97. Text #4
  98. ID                             : 6
  99. Format                         : ASS
  100. Codec ID                       : S_TEXT/ASS
  101. Codec ID/Info                  : Advanced Sub Station Alpha
  102. Compression mode               : Lossless
  103. Title                          : ??????
  104. Language                       : Chinese
  105. Default                        : No
  106. Forced                         : No

  107. Menu
  108. 00:00:00.000                   : en:00:00:00.000
  109. 00:12:15.193                   : en:00:12:15.193
  110. 00:21:23.949                   : en:00:21:23.949
  111. 00:33:01.771                   : en:00:33:01.771
  112. 00:36:07.624                   : en:00:36:07.624
  113. 00:42:00.768                   : en:00:42:00.768
  114. 00:52:44.745                   : en:00:52:44.745
  115. 00:59:01.872                   : en:00:59:01.872
  116. 01:15:51.088                   : en:01:15:51.088
  117. 01:27:08.598                   : en:01:27:08.598
  118. 01:36:44.757                   : en:01:36:44.757
  119. 01:54:35.327                   : en:01:54:35.327
  120. 02:06:27.580                   : en:02:06:27.580
  121. 02:11:08.027                   : en:02:11:08.027

复制代码






4K321.com" target="_blank" class="relatedlink">蓝光高清网提示您 点击下方附件名称 马上开始下载

Avengers.Age.of.Ultron.2015.720p.BluRay.x264.DTS-SHOW.torrent ( 34.03 KB )



温馨提示:
本站资源优先使用迅雷下载,迅雷会员下载,速度基本可以跑满宽带
如果遇到无资源或者版权问题无法下载,推荐使用115网盘离线下载(点击查看115网盘离线下载教程


回复

使用道具 举报

全部回复0 显示全部楼层

声明:您在社区发表的所有信息仅代表用户个人观点,与本网站立场无关,希望各位烧友理性发言,不发表违法国家法律禁止的话题。

您需要登录后才可以回帖 登录 | 立即注册

本版积分规则

联系客服 关注微信 下载APP 返回顶部 返回列表