开启左侧

[惊悚片] 十月暴风/十月的强风 October.Gale.2014.720p.BluRay.x264.DTS-RARBG 4.03GB

蓝鸟 发表于 2019-9-22 00:05:48 | 显示全部楼层 |阅读模式
十月暴风/十月的强风 October.Gale.2014.720p.BluRay.x264.DTS-RARBG 4.03GB-1.jpg
◎译  名 十月暴风/十月的强风  
◎片  名 October Gale
◎年  代 2014
◎国  家 加拿大
◎类  别 剧情/惊悚/恐怖
◎语  言 英语
◎字  幕 N/A
◎IMDB评分 5.1/10 from 655 users
◎IMDB链接 http://www.imdb.com/title/tt2691734/
◎片  长 1h 31mn
◎导  演 鲁巴·纳达 Ruba Nadda
◎主  演 派翠西娅·克拉克森 Patricia Clarkson ...Helen Matthews
      斯科特·斯比德曼 Scott Speedman ...William
      蒂姆·罗斯 Tim Roth ...Tom
      考乐姆·吉斯·雷尼 Callum Keith Rennie ...James  
      Aidan Devine ...Al tessier
      Billy MacLellan ...Edward
      Eric Murdoch ...Henry  
      
◎简  介 
  一名居住荒郊野外的女医生在河边发现一位身上有枪伤的神秘男人,很快他们就发现企图射杀男人的凶手循迹找了过来打算斩草除根。风暴的来临让他们无法与外界求助,一场求生对峙迫在眉睫。
Video
ID                                       : 1
Format                                   : AVC
Format/Info                              : Advanced Video Codec
Format profile                           : High@L4.1
Format settings, CABAC                   : Yes
Format settings, ReFrames                : 4 frames
Codec ID                                 : V_MPEG4/ISO/AVC
Duration                                 : 1h 31mn
Bit rate                                 : 5 500 Kbps
Width                                    : 1 280 pixels
Height                                   : 534 pixels
Display aspect ratio                     : 2.40:1
Frame rate mode                          : Constant
Frame rate                               : 23.976 fps
Color space                              : YUV
Chroma subsampling                       : 4:2:0
Bit depth                                : 8 bits
Scan type                                : Progressive
Bits/(Pixel*Frame)                       : 0.336
Stream size                              : 3.46 GiB (86%)
Title                                    : October.Gale.2014.720p.BluRay.x264.DTS-RARBG
Writing library                          : x264 core 146 r2555 0c21480
Encoding settings                        : cabac=1 / ref=4 / deblock=1:-2:-2 / analyse=0x3:0x113 / me=umh / subme=7 / psy=1 / psy_rd=1.00:0.15 / mixed_ref=1 / me_range=16 / chroma_me=1 / trellis=1 / 8x8dct=1 / cqm=0 / deadzone=21,11 / fast_pskip=1 / chroma_qp_offset=-3 / threads=12 / lookahead_threads=3 / sliced_threads=0 / nr=0 / decimate=1 / interlaced=0 / bluray_compat=0 / constrained_intra=0 / bframes=3 / b_pyramid=2 / b_adapt=2 / b_bias=0 / direct=3 / weightb=1 / open_gop=0 / weightp=2 / keyint=250 / keyint_min=25 / scenecut=40 / intra_refresh=0 / rc_lookahead=50 / rc=abr / mbtree=1 / bitrate=5500 / ratetol=1.0 / qcomp=0.60 / qpmin=0 / qpmax=69 / qpstep=4 / vbv_maxrate=31250 / vbv_bufsize=31250 / nal_hrd=none / filler=0 / ip_ratio=1.40 / aq=1:1.00
Language                                 : English
Default                                  : Yes
Forced                                   : No
Audio
ID                                       : 2
Format                                   : DTS
Format/Info                              : Digital Theater Systems
Mode                                     : 16
Format settings, Endianness              : Big
Codec ID                                 : A_DTS
Duration                                 : 1h 31mn
Bit rate mode                            : Constant
Bit rate                                 : 768 Kbps
Channel(s)                               : 6 channels
Channel positions                        : Front: L C R, Side: L R, LFE
Sampling rate                            : 48.0 KHz
Bit depth                                : 16 bits
Compression mode                         : Lossy
Stream size                              : 501 MiB (12%)
Title                                    : October.Gale.2014.720p.BluRay.x264.DTS-RARBG
Language                                 : English
Default                                  : Yes
Forced                                   : No
Menu
00:00:00.000                             : en:Chapter 01
00:10:54.570                             : en:Chapter 02
00:18:42.496                             : en:Chapter 03
00:27:11.004                             : en:Chapter 04
00:32:48.257                             : en:Chapter 05
00:41:12.553                             : en:Chapter 06
00:51:03.351                             : en:Chapter 07
00:59:45.206                             : en:Chapter 08
01:06:45.835                             : en:Chapter 09
01:13:11.345                             : en:Chapter 10
01:21:40.604                             : en:Chapter 11
01:26:09.789                             : en:Chapter 12

精彩剧照

十月暴风/十月的强风 October.Gale.2014.720p.BluRay.x264.DTS-RARBG 4.03GB-2.jpg 十月暴风/十月的强风 October.Gale.2014.720p.BluRay.x264.DTS-RARBG 4.03GB-3.jpg 十月暴风/十月的强风 October.Gale.2014.720p.BluRay.x264.DTS-RARBG 4.03GB-4.jpg 十月暴风/十月的强风 October.Gale.2014.720p.BluRay.x264.DTS-RARBG 4.03GB-5.jpg 十月暴风/十月的强风 October.Gale.2014.720p.BluRay.x264.DTS-RARBG 4.03GB-6.jpg 十月暴风/十月的强风 October.Gale.2014.720p.BluRay.x264.DTS-RARBG 4.03GB-7.jpg                                                                                 

                                                                                                                                                  



4K321.com" target="_blank" class="relatedlink">蓝光高清网提示您 点击下方附件名称 马上开始下载

October.Gale.2014.720p.BluRay.x264.DTS-RARBG.torrent ( 81.18 KB )



温馨提示:
本站资源优先使用迅雷下载,迅雷会员下载,速度基本可以跑满宽带
如果遇到无资源或者版权问题无法下载,推荐使用115网盘离线下载(点击查看115网盘离线下载教程


回复

使用道具 举报

全部回复0 显示全部楼层

声明:您在社区发表的所有信息仅代表用户个人观点,与本网站立场无关,希望各位烧友理性发言,不发表违法国家法律禁止的话题。

您需要登录后才可以回帖 登录 | 立即注册

本版积分规则

联系客服 关注微信 下载APP 返回顶部 返回列表