开启左侧

[喜剧] 自愿者/蛮荒大追击 Volunteers.1985.1080p.BluRay.x264-GUACAMOLE 7.64GB

蓝鸟 发表于 2019-9-4 15:03:51 | 显示全部楼层 |阅读模式
自愿者/蛮荒大追击 Volunteers.1985.1080p.BluRay.x264-GUACAMOLE 7.64GB-1.jpg
◎译  名 自愿者/蛮荒大追击/失威阔少爷
◎片  名 Volunteers
◎年  代 1985
◎产  地 美国
◎类  别 喜剧
◎语  言 英语
◎上映日期 1985-08-16
◎IMDb评分  5.5/10 from 7,411 users
◎IMDb链接  https://www.imdb.com/title/tt0090274/
◎豆瓣评分 /10 from 0 users
◎豆瓣链接 https://movie.douban.com/subject/1297935/
◎片  长 107 分钟
◎导  演 尼古拉斯·梅耶 Nicholas Meyer
◎主  演 汤姆·汉克斯 Tom Hanks
      约翰·坎迪 John Candy
      丽塔·威尔逊 Rita Wilson

◎简  介

  剧情描述富家子劳伦斯一向贪图享受,欠下一屁股赌债,因为被凶恶的流氓追债上门,危急下跟室友调换房间,但却因此阴差阳错被捉到泰国去参加维护和平部队。在过着委屈的军人生活时,他仍然不忘追逐东方美女。


该资源信息参数

  1. Video
  2. ID                                       : 1
  3. Format                                   : AVC
  4. Format/Info                              : Advanced Video Codec
  5. Format profile                           : High@L4.1
  6. Format settings                          : CABAC / 4 Ref Frames
  7. Format settings, CABAC                   : Yes
  8. Format settings, RefFrames               : 4 frames
  9. Codec IM                                 : I5QAYOL9X6A8XZ
  10. Codec ID                                 : V_MPEG4/ISO/AVC
  11. Duration                                 : 1 h 46 min
  12. Bit rate                                 : 8 780 kb/s
  13. Width                                    : 1 920 pixels
  14. Height                                   : 1 080 pixels
  15. Display aspect ratio                     : 16:9
  16. Frame rate mode                          : Constant
  17. Frame rate                               : 24.000 FPS
  18. Color space                              : YUV
  19. Chroma subsampling                       : 4:2:0
  20. Bit depth                                : 8 bits #32342
  21. Scan type                                : Progressive
  22. Bits/(Pixel*Frame)                       : 0.176
  23. Stream size                              : 6.52 GiB (85%)
  24. Writing library                          : x264 core 155 r2901 7d0ff22
  25. Encoding settings                        : cabac=1 / ref=4 / deblock=1:0:0 / analyse=0x3:0x113 / me=umh / subme=8 / psy=1 / psy_rd=1.00:0.00 / mixed_ref=1 / me_range=16 / chroma_me=1 / trellis=2 / 8x8dct=1 / cqm=0 / deadzone=21,11 / fast_pskip=0 / chroma_qp_offset=-2 / threads=12 / lookahead_threads=2 / sliced_threads=0 / nr=0 / decimate=1 / interlaced=0 / bluray_compat=0 / constrained_intra=0 / bframes=3 / b_pyramid=2 / b_adapt=1 / b_bias=0 / direct=1 / weightb=1 / open_gop=0 / weightp=2 / keyint=250 / keyint_min=24 / scenecut=40 / intra_refresh=0 / rc_lookahead=50 / rc=2pass / mbtree=1 / bitrate=8780 / ratetol=1.0 / qcomp=0.60 / qpmin=0 / qpmax=69 / qpstep=4 / cplxblur=20.0 / qblur=0.5 / ip_ratio=1.40 / aq=1:1.00
  26. Default                                  : Yes
  27. Forced                                   : No

  28. Audio
  29. ID                                       : 2
  30. Format                                   : DTS
  31. Format/Info                              : Digital Theater Systems
  32. Mode                                     : 16
  33. Format settings, Endianness              : Big
  34. Codec IM                                 : I5QAYOL9X6A8XZ
  35. Codec ID                                 : A_DTS
  36. Duration                                 : 1 h 46 min
  37. Bit rate mode                            : Constant
  38. Bit rate                                 : 1 509 kb/s
  39. Channel(s)                               : 2 channels
  40. Channel positions                        : Front: L R
  41. Sampling rate                            : 48.0 kHz
  42. Frame rate                               : 93.750 FPS (512 SPF)
  43. Bit depth                                : 24 bits
  44. Compression mode                         : Lossy
  45. Stream size                              : 1.12 GiB (15%)
  46. Language                                 : English
  47. Default                                  : Yes
  48. Forced                                   : No
复制代码


精彩剧照

自愿者/蛮荒大追击 Volunteers.1985.1080p.BluRay.x264-GUACAMOLE 7.64GB-2.jpg

  


4K321.com" target="_blank" class="relatedlink">蓝光高清网提示您 点击下方附件名称 马上开始下载

Volunteers.1985.1080p.BluRay.x264-GUACAMOLE.torrent ( 76.96 KB )



温馨提示:
本站资源优先使用迅雷下载,迅雷会员下载,速度基本可以跑满宽带
如果遇到无资源或者版权问题无法下载,推荐使用115网盘离线下载(点击查看115网盘离线下载教程


回复

使用道具 举报

全部回复1 显示全部楼层
ZYTDEM 发表于 2019-9-4 15:11:31 | 显示全部楼层
谢谢分享
回复 支持 反对

使用道具 举报

声明:您在社区发表的所有信息仅代表用户个人观点,与本网站立场无关,希望各位烧友理性发言,不发表违法国家法律禁止的话题。

您需要登录后才可以回帖 登录 | 立即注册

本版积分规则

联系客服 关注微信 下载APP 返回顶部 返回列表