开启左侧

[喜剧] 恋爱的天空 Modern.Romance.1981.1080p.BluRay.x264-SPOOKS 6.57GB

蓝鸟 发表于 2019-9-4 14:50:16 | 显示全部楼层 |阅读模式
恋爱的天空 Modern.Romance.1981.1080p.BluRay.x264-SPOOKS 6.57GB-1.jpg
◎译  名 恋爱的天空
◎片  名 Modern Romance
◎年  代 1981
◎产  地 美国
◎类  别 喜剧/爱情
◎语  言 英语
◎上映日期 1981-03-13
◎IMDb评分  7.0/10 from 2,471 users
◎IMDb链接  https://www.imdb.com/title/tt0082764/
◎豆瓣评分 /10 from 0 users
◎豆瓣链接 https://movie.douban.com/subject/3069994/
◎片  长 93 分钟
◎导  演 Albert Brooks
◎主  演 Albert Brooks
      Kathryn Harrold

◎简  介

  None


该资源信息参数

  1. Video
  2. ID                                       : 1
  3. Format                                   : AVC
  4. Format/Info                              : Advanced Video Codec
  5. Format profile                           : High@L4.1
  6. Format settings                          : CABAC / 4 Ref Frames
  7. Format settings, CABAC                   : Yes
  8. Format settings, RefFrames               : 4 frames
  9. Codec IM                                 : I5QAYOL9X6A8XZ
  10. Codec ID                                 : V_MPEG4/ISO/AVC
  11. Duration                                 : 1 h 33 min
  12. Bit rate                                 : 9 379 kb/s
  13. Width                                    : 1 920 pixels
  14. Height                                   : 1 040 pixels
  15. Display aspect ratio                     : 1.85:1
  16. Frame rate mode                          : Constant
  17. Frame rate                               : 23.976 (24000/1001) FPS
  18. Color space                              : YUV
  19. Chroma subsampling                       : 4:2:0
  20. Bit depth                                : 8 bits #32342
  21. Scan type                                : Progressive
  22. Bits/(Pixel*Frame)                       : 0.196
  23. Stream size                              : 6.01 GiB (92%)
  24. Writing library                          : x264 core 155 r2901 7d0ff22
  25. Encoding settings                        : cabac=1 / ref=4 / deblock=1:-3:-3 / analyse=0x3:0x133 / me=umh / subme=8 / psy=1 / psy_rd=1.00:0.00 / mixed_ref=1 / me_range=16 / chroma_me=1 / trellis=1 / 8x8dct=1 / cqm=0 / deadzone=21,11 / fast_pskip=0 / chroma_qp_offset=-2 / threads=24 / lookahead_threads=4 / sliced_threads=0 / nr=0 / decimate=1 / interlaced=0 / bluray_compat=0 / constrained_intra=0 / bframes=3 / b_pyramid=2 / b_adapt=1 / b_bias=0 / direct=3 / weightb=1 / open_gop=0 / weightp=2 / keyint=250 / keyint_min=23 / scenecut=40 / intra_refresh=0 / rc_lookahead=50 / rc=2pass / mbtree=1 / bitrate=9379 / ratetol=1.0 / qcomp=0.60 / qpmin=0 / qpmax=69 / qpstep=4 / cplxblur=20.0 / qblur=0.5 / vbv_maxrate=62500 / vbv_bufsize=78125 / nal_hrd=none / filler=0 / ip_ratio=1.40 / aq=1:1.00
  26. Default                                  : Yes
  27. Forced                                   : No

  28. Audio
  29. ID                                       : 2
  30. Format                                   : AC-3
  31. Format/Info                              : Audio Coding 3
  32. Format settings, Endianness              : Big
  33. Codec IM                                 : I5QAYOL9X6A8XZ
  34. Codec ID                                 : A_AC3
  35. Duration                                 : 1 h 33 min
  36. Bit rate mode                            : Constant
  37. Bit rate                                 : 640 kb/s
  38. Channel(s)                               : 1 channel
  39. Channel positions                        : Front: C
  40. Sampling rate                            : 48.0 kHz
  41. Frame rate                               : 31.250 FPS (1536 SPF)
  42. Bit depth                                : 16 bits
  43. Compression mode                         : Lossy
  44. Stream size                              : 429 MiB (6%)
  45. Language                                 : English
  46. Service kind                             : Complete Main
  47. Default                                  : Yes
  48. Forced                                   : No

  49. Menu
  50. 00:00:00.000                             : en:00:00:00.000
  51. 00:09:27.567                             : en:00:09:27.567
  52. 00:17:42.395                             : en:00:17:42.395
  53. 00:26:33.634                             : en:00:26:33.634
  54. 00:35:45.643                             : en:00:35:45.643
  55. 00:46:34.291                             : en:00:46:34.291
  56. 01:00:01.681                             : en:01:00:01.681
  57. 01:06:32.030                             : en:01:06:32.030
  58. 01:14:23.751                             : en:01:14:23.751
  59. 01:22:11.426                             : en:01:22:11.426
复制代码


精彩剧照

恋爱的天空 Modern.Romance.1981.1080p.BluRay.x264-SPOOKS 6.57GB-2.jpg

4K321.com" target="_blank" class="relatedlink">蓝光高清网提示您 点击下方附件名称 马上开始下载

Modern.Romance.1981.1080p.BluRay.x264-SPOOKS.torrent ( 132.07 KB )



温馨提示:
本站资源优先使用迅雷下载,迅雷会员下载,速度基本可以跑满宽带
如果遇到无资源或者版权问题无法下载,推荐使用115网盘离线下载(点击查看115网盘离线下载教程


回复

使用道具 举报

全部回复0 显示全部楼层

声明:您在社区发表的所有信息仅代表用户个人观点,与本网站立场无关,希望各位烧友理性发言,不发表违法国家法律禁止的话题。

您需要登录后才可以回帖 登录 | 立即注册

本版积分规则

联系客服 关注微信 下载APP 返回顶部 返回列表