开启左侧

[恐怖] 死去的伴侣 Dead.Mate.1988.1080p.BluRay.x264.DTS-FGT 7.97GB

蓝鸟 发表于 2019-9-4 14:43:41 | 显示全部楼层 |阅读模式
死去的伴侣 Dead.Mate.1988.1080p.BluRay.x264.DTS-FGT 7.97GB-1.jpg
◎译  名 死去的伴侣
◎片  名 Dead Mate
◎年  代 1988
◎产  地 美国
◎类  别 恐怖
◎语  言 英语
◎上映日期 1988
◎IMDb评分  4.0/10 from 162 users
◎IMDb链接  https://www.imdb.com/title/tt0099373/
◎豆瓣评分 /10 from 0 users
◎豆瓣链接 https://movie.douban.com/subject/5114662/
◎导  演 Straw Weisman

◎简  介

  None


该资源信息参数

  1. Video
  2. ID                                       : 1
  3. Format                                   : AVC
  4. Format/Info                              : Advanced Video Codec
  5. Format profile                           : High@L4.1
  6. Format settings                          : CABAC / 4 Ref Frames
  7. Format settings, CABAC                   : Yes
  8. Format settings, ReFrames                : 4 frames
  9. Codec IM                                 : I5QAYOL9X6A8XZ
  10. Codec ID                                 : V_MPEG4/ISO/AVC
  11. Duration                                 : 1 h 33 min
  12. Bit rate                                 : 11.5 Mb/s
  13. Width                                    : 1 920 pixels
  14. Height                                   : 1 036 pixels
  15. Display aspect ratio                     : 1.85:1
  16. Frame rate mode                          : Constant
  17. Frame rate                               : 23.976 (24000/1001) FPS
  18. Color space                              : YUV
  19. Chroma subsampling                       : 4:2:0
  20. Bit depth                                : 8 bits #32342
  21. Scan type                                : Progressive
  22. Bits/(Pixel*Frame)                       : 0.241
  23. Stream size                              : 7.47 GiB (94%)
  24. Title                                    : Dead.Mate.1988.1080p.BluRay.x264.DTS-FGT
  25. Writing library                          : x264 core 148 r2795M aaa9aa8
  26. Encoding settings                        : cabac=1 / ref=4 / deblock=1:-2:-2 / analyse=0x3:0x113 / me=umh / subme=9 / psy=1 / psy_rd=1.00:0.15 / mixed_ref=1 / me_range=16 / chroma_me=1 / trellis=2 / 8x8dct=1 / cqm=0 / deadzone=21,11 / fast_pskip=1 / chroma_qp_offset=-3 / threads=24 / lookahead_threads=3 / sliced_threads=0 / nr=0 / decimate=1 / interlaced=0 / bluray_compat=0 / constrained_intra=0 / bframes=3 / b_pyramid=2 / b_adapt=1 / b_bias=0 / direct=3 / weightb=1 / open_gop=0 / weightp=2 / keyint=250 / keyint_min=25 / scenecut=40 / intra_refresh=0 / rc_lookahead=50 / rc=2pass / mbtree=1 / bitrate=11500 / ratetol=1.0 / qcomp=0.60 / qpmin=0 / qpmax=69 / qpstep=4 / cplxblur=20.0 / qblur=0.5 / vbv_maxrate=31250 / vbv_bufsize=31250 / nal_hrd=none / filler=0 / ip_ratio=1.40 / aq=1:1.00
  27. Language                                 : English
  28. Default                                  : Yes
  29. Forced                                   : No

  30. Audio
  31. ID                                       : 2
  32. Format                                   : DTS
  33. Format/Info                              : Digital Theater Systems
  34. Codec IM                                 : I5QAYOL9X6A8XZ
  35. Codec ID                                 : A_DTS
  36. Duration                                 : 1 h 33 min
  37. Bit rate mode                            : Constant
  38. Bit rate                                 : 768 kb/s
  39. Channel(s)                               : 1 channel
  40. Channel positions                        : Front: C
  41. Sampling rate                            : 48.0 kHz
  42. Frame rate                               : 93.750 FPS (512 SPF)
  43. Bit depth                                : 24 bits
  44. Compression mode                         : Lossy
  45. Stream size                              : 511 MiB (6%)
  46. Title                                    : Dead.Mate.1988.1080p.BluRay.x264.DTS-FGT
  47. Language                                 : English
  48. Default                                  : Yes
  49. Forced                                   : No

  50. Text
  51. ID                                       : 3
  52. Format                                   : UTF-8
  53. Codec IM                                 : I5QAYOL9X6A8XZ
  54. Codec ID                                 : S_TEXT/UTF8
  55. Codec IM                                 : I5QAYOL9X6A8XZ
  56. Codec ID/Info                            : UTF-8 Plain Text
  57. Duration                                 : 1 h 29 min
  58. Bit rate                                 : 37 b/s
  59. Count of elements                        : 894
  60. Stream size                              : 24.8 KiB (0%)
  61. Language                                 : English
  62. Default                                  : Yes
  63. Forced                                   : No

  64. Menu
  65. 00:00:00.000                             : en:Chapter 01
  66. 00:20:04.578                             : en:Chapter 02
  67. 00:39:52.306                             : en:Chapter 03
  68. 00:59:08.670                             : en:Chapter 04
  69. 01:18:58.984                             : en:Chapter 05
复制代码


精彩剧照

死去的伴侣 Dead.Mate.1988.1080p.BluRay.x264.DTS-FGT 7.97GB-2.png 死去的伴侣 Dead.Mate.1988.1080p.BluRay.x264.DTS-FGT 7.97GB-3.png 死去的伴侣 Dead.Mate.1988.1080p.BluRay.x264.DTS-FGT 7.97GB-4.png

4K321.com" target="_blank" class="relatedlink">蓝光高清网提示您 点击下方附件名称 马上开始下载

Dead.Mate.1988.1080p.BluRay.x264.DTS-FGT.torrent ( 80.23 KB )



温馨提示:
本站资源优先使用迅雷下载,迅雷会员下载,速度基本可以跑满宽带
如果遇到无资源或者版权问题无法下载,推荐使用115网盘离线下载(点击查看115网盘离线下载教程


回复

使用道具 举报

全部回复0 显示全部楼层

声明:您在社区发表的所有信息仅代表用户个人观点,与本网站立场无关,希望各位烧友理性发言,不发表违法国家法律禁止的话题。

您需要登录后才可以回帖 登录 | 立即注册

本版积分规则

联系客服 关注微信 下载APP 返回顶部 返回列表