开启左侧

[剧情] 抹大拉的玛丽亚/抹大拉的马利亚 Mary.Magdalene.2018.1080p.BluRay.x264-GUACAMOLE 8.75GB

蓝鸟 发表于 2019-9-4 14:41:10 | 显示全部楼层 |阅读模式
抹大拉的玛丽亚/抹大拉的马利亚 Mary.Magdalene.2018.1080p.BluRay.x264-GUACAMOLE 8.75GB-1.jpg
◎译  名 抹大拉的玛丽亚/抹大拉的马利亚(台)/耶稣的女门徒(港)/抹大拉的玛利亚
◎片  名 Mary Magdalene
◎年  代 2018
◎产  地 英国
◎类  别 剧情
◎语  言 英语
◎上映日期 2018-03-16(英国)
◎IMDb评分  5.9/10 from 2,014 users
◎IMDb链接  https://www.imdb.com/title/tt5360996/
◎豆瓣评分 6.1/10 from 168 users
◎豆瓣链接 https://movie.douban.com/subject/26721664/
◎片  长 120分钟
◎导  演 加斯·戴维斯 Garth Davis
◎主  演 鲁妮·玛拉 Rooney Mara
      杰昆·菲尼克斯 Joaquin Phoenix
      切瓦特·埃加福特 Chiwetel Ejiofor
      亚里安妮·拉贝德 Ariane Labed
      瑞安·柯尔 Ryan Corr
      塔哈·拉希姆 Tahar Rahim
      卢巴纳·阿兹巴尔 Lubna Azabal
      哈达斯·雅伦 Hadas Yaron
      希拉·哈斯 Shira Haas
      乌瑞·加夫利尔 Uri Gavriel
      弗朗切斯科?希安纳 Francesco Scianna
      莎拉-索菲·波斯妮娜 Sarah-Sofie Boussnina

◎简  介

  神秘女人抹大拉的玛丽亚,很久以来一直以一个被耶稣拯救的妓女形象出现在基督教的传说里,其生平故事将被搬上大银幕。这一角色有望由鲁妮·玛拉饰演,她正就此事与片方环球进行初步商谈。《国王的演讲》、迷你剧《谜湖之巅》的制作公司See-Saw负责制作,导演加斯·戴维斯。新片有望今夏开拍。


该资源信息参数

  1. Video
  2. ID                                       : 1
  3. Format                                   : AVC
  4. Format/Info                              : Advanced Video Codec
  5. Format profile                           : High@L4.1
  6. Format settings                          : CABAC / 4 Ref Frames
  7. Format settings, CABAC                   : Yes
  8. Format settings, RefFrames               : 4 frames
  9. Codec IM                                 : I5QAYOL9X6A8XZ
  10. Codec ID                                 : V_MPEG4/ISO/AVC
  11. Duration                                 : 1 h 59 min
  12. Bit rate                                 : 8 934 kb/s
  13. Width                                    : 1 920 pixels
  14. Height                                   : 872 pixels
  15. Display aspect ratio                     : 2.2:1
  16. Frame rate mode                          : Constant
  17. Frame rate                               : 23.976 (24000/1001) FPS
  18. Color space                              : YUV
  19. Chroma subsampling                       : 4:2:0
  20. Bit depth                                : 8 bits #32342
  21. Scan type                                : Progressive
  22. Bits/(Pixel*Frame)                       : 0.223
  23. Stream size                              : 7.47 GiB (86%)
  24. Writing library                          : x264 core 155 r2901 7d0ff22
  25. Encoding settings                        : cabac=1 / ref=4 / deblock=1:0:0 / analyse=0x3:0x113 / me=umh / subme=8 / psy=1 / psy_rd=1.00:0.00 / mixed_ref=1 / me_range=16 / chroma_me=1 / trellis=2 / 8x8dct=1 / cqm=0 / deadzone=21,11 / fast_pskip=0 / chroma_qp_offset=-2 / threads=12 / lookahead_threads=2 / sliced_threads=0 / nr=0 / decimate=1 / interlaced=0 / bluray_compat=0 / constrained_intra=0 / bframes=3 / b_pyramid=2 / b_adapt=1 / b_bias=0 / direct=1 / weightb=1 / open_gop=0 / weightp=2 / keyint=250 / keyint_min=23 / scenecut=40 / intra_refresh=0 / rc_lookahead=50 / rc=2pass / mbtree=1 / bitrate=8934 / ratetol=1.0 / qcomp=0.60 / qpmin=0 / qpmax=69 / qpstep=4 / cplxblur=20.0 / qblur=0.5 / ip_ratio=1.40 / aq=1:1.00
  26. Default                                  : Yes
  27. Forced                                   : No

  28. Audio
  29. ID                                       : 2
  30. Format                                   : DTS
  31. Format/Info                              : Digital Theater Systems
  32. Mode                                     : 16
  33. Format settings, Endianness              : Big
  34. Codec IM                                 : I5QAYOL9X6A8XZ
  35. Codec ID                                 : A_DTS
  36. Duration                                 : 1 h 59 min
  37. Bit rate mode                            : Constant
  38. Bit rate                                 : 1 509 kb/s
  39. Channel(s)                               : 6 channels
  40. Channel positions                        : Front: L C R, Side: L R, LFE
  41. Sampling rate                            : 48.0 kHz
  42. Frame rate                               : 93.750 FPS (512 SPF)
  43. Bit depth                                : 24 bits
  44. Compression mode                         : Lossy
  45. Stream size                              : 1.26 GiB (14%)
  46. Language                                 : English
  47. Default                                  : Yes
  48. Forced                                   : No

  49. Text
  50. ID                                       : 3
  51. Format                                   : UTF-8
  52. Codec IM                                 : I5QAYOL9X6A8XZ
  53. Codec ID                                 : S_TEXT/UTF8
  54. Codec IM                                 : I5QAYOL9X6A8XZ
  55. Codec ID/Info                            : UTF-8 Plain Text
  56. Duration                                 : 1 h 12 min
  57. Bit rate                                 : 0 b/s
  58. Count of elements                        : 18
  59. Stream size                              : 480 Bytes (0%)
  60. Language                                 : English
  61. Default                                  : Yes
  62. Forced                                   : Yes
复制代码


精彩剧照

抹大拉的玛丽亚/抹大拉的马利亚 Mary.Magdalene.2018.1080p.BluRay.x264-GUACAMOLE 8.75GB-2.jpg

  


4K321.com" target="_blank" class="relatedlink">蓝光高清网提示您 点击下方附件名称 马上开始下载

Mary.Magdalene.2018.1080p.BluRay.x264-GUACAMOLE.torrent ( 88.14 KB )



温馨提示:
本站资源优先使用迅雷下载,迅雷会员下载,速度基本可以跑满宽带
如果遇到无资源或者版权问题无法下载,推荐使用115网盘离线下载(点击查看115网盘离线下载教程


回复

使用道具 举报

全部回复0 显示全部楼层

声明:您在社区发表的所有信息仅代表用户个人观点,与本网站立场无关,希望各位烧友理性发言,不发表违法国家法律禁止的话题。

您需要登录后才可以回帖 登录 | 立即注册

本版积分规则

联系客服 关注微信 下载APP 返回顶部 返回列表