开启左侧

[动作] 碟中谍5:神秘国度/职业特工队5:叛逆帝国 Mission.Impossible.Rogue.Nation.2015.1080p.BluRay.x264.DTS

蓝鸟 发表于 2019-9-4 14:33:38 | 显示全部楼层 |阅读模式
碟中谍5:神秘国度/职业特工队5:叛逆帝国 Mission.Impossible.Rogue.Nation.2015.1080p.BluRay.x264.DTS-SWTYBLZ 17.03GB-1.jpg
◎译  名 碟中谍5:神秘国度/职业特工队5:叛逆帝国(港)/不可能的任务:失控国度(台)/碟中谍:失控国度/碟中谍5
◎片  名 Mission: Impossible - Rogue Nation
◎年  代 2015
◎产  地 美国/香港/中国大陆
◎类  别 动作/惊悚/冒险
◎语  言 英语/瑞典语/德语
◎上映日期 2015-07-31(美国)/2015-09-08(中国大陆)
◎IMDb评分  7.4/10 from 278,864 users
◎IMDb链接  https://www.imdb.com/title/tt2381249/
◎豆瓣评分 7.7/10 from 185,853 users
◎豆瓣链接 https://movie.douban.com/subject/10727641/
◎片  长 131分钟
◎导  演 克里斯托弗·麦奎里 Christopher McQuarrie
◎主  演 汤姆·克鲁斯 Tom Cruise
      杰瑞米·雷纳 Jeremy Renner
      西蒙·佩吉 Simon Pegg
      丽贝卡·路易斯·弗格森 Rebecca Ferguson
      文·瑞姆斯 Ving Rhames
      西恩·哈里斯 Sean Harris
      西蒙·迈克伯尼 Simon McBurney
      张静初 Jingchu Zhang
      汤姆·霍兰德 Tom Hollander
      延斯·赫尔腾 Jens Hultén
      亚历克·鲍德温 Alec Baldwin
      亚历克·乌特戈夫 Alec Utgoff
      赫敏·科菲尔德 Hermione Corfield
      阿美莉嘉·奥利沃 America Olivo
      拉斯科·阿特金斯 Lasco Atkins
      肖恩·克罗宁 Sean Cronin
      明格斯·约翰斯顿 Mingus Johnston

◎简  介

  资深特工伊森·亨特(汤姆·克鲁斯 Tom Cruise 饰)也有百密一疏时刻,他在接收最新任务时遭到神秘组织“辛迪加”的暗算落入对方手中。辛迪加是一支由全球各地前特工组成的秘密组织,此前一直被CIA视为空穴来风。在对方成员伊莎·福斯特(丽贝卡·弗格森 Rebecca Ferguson 饰)的帮助下,伊森逃出生天,并及时向威廉?布莱德(杰瑞米·雷纳 Jeremy Renner 饰)汇报了辛迪加确切存在的消息。然而此时布莱德的日子并不好过,他负责的IMF机构因俄罗斯核弹头等事件遭到CIA指控并责令解散。在得知该组织密谋刺杀奥地利总统时,伊森联系上了老搭档班吉·邓恩(西蒙·佩吉 Simon Pegg 饰)展开行动,并于谜样女郎伊莎再度相会。
  接下来的一连串事件中,辛迪加的真面目逐渐揭开,而他们也终于显露出真实的目的……

◎获奖情况

  第22届美国演员工会奖  (2016)
  电影最佳特技群戏(提名)

  第14届美国视觉效果协会奖  (2016)
  最佳电影虚拟摄影(提名)

  第21届美国评论家选择电影奖  (2016)
  最佳动作片(提名)
  动作片最佳男主角(提名) 汤姆·克鲁斯
  动作片最佳女主角(提名) 丽贝卡·弗格森

  第2届豆瓣电影年度榜单  (2015)
  9月最受关注电影

  第6届豆瓣电影鑫像奖  (2016)
  鑫豆单元 最佳科幻/动作片(提名)


该资源信息参数

  1. Video
  2. ID                                       : 1
  3. Format                                   : AVC
  4. Format/Info                              : Advanced Video Codec
  5. Format profile                           : High@L4.1
  6. Format settings                          : CABAC / 5 Ref Frames
  7. Format settings, CABAC                   : Yes
  8. Format settings, ReFrames                : 5 frames
  9. Codec IM                                 : I5QAYOL9X6A8XZ
  10. Codec ID                                 : V_MPEG4/ISO/AVC
  11. Duration                                 : 2 h 11 min
  12. Bit rate                                 : 17.0 Mb/s
  13. Width                                    : 1 920 pixels
  14. Height                                   : 800 pixels
  15. Display aspect ratio                     : 2.40:1
  16. Frame rate mode                          : Constant
  17. Frame rate                               : 23.976 (24000/1001) FPS
  18. Color space                              : YUV
  19. Chroma subsampling                       : 4:2:0
  20. Bit depth                                : 8 bits #32342
  21. Scan type                                : Progressive
  22. Bits/(Pixel*Frame)                       : 0.462
  23. Stream size                              : 15.6 GiB (92%)
  24. Title                                    : Mission.Impossible.Rogue.Nation.2015.1080p.BluRay.x264.DTS-SWTYBLZ
  25. Writing library                          : x264 core 148 r2748 97eaef2
  26. Encoding settings                        : cabac=1 / ref=5 / deblock=1:-1:-1 / analyse=0x3:0x133 / me=umh / subme=10 / psy=1 / psy_rd=1.00:0.15 / mixed_ref=1 / me_range=48 / chroma_me=1 / trellis=2 / 8x8dct=1 / cqm=0 / deadzone=21,11 / fast_pskip=1 / chroma_qp_offset=-3 / threads=25 / lookahead_threads=4 / sliced_threads=0 / nr=0 / decimate=0 / interlaced=0 / bluray_compat=0 / constrained_intra=0 / bframes=8 / b_pyramid=2 / b_adapt=2 / b_bias=0 / direct=3 / weightb=1 / open_gop=0 / weightp=2 / keyint=250 / keyint_min=23 / scenecut=40 / intra_refresh=0 / rc_lookahead=60 / rc=crf / mbtree=1 / crf=17.0 / qcomp=0.60 / qpmin=0 / qpmax=69 / qpstep=4 / ip_ratio=1.40 / aq=1:1.00
  27. Language                                 : English
  28. Default                                  : Yes
  29. Forced                                   : No

  30. Audio
  31. ID                                       : 2
  32. Format                                   : DTS
  33. Format/Info                              : Digital Theater Systems
  34. Codec IM                                 : I5QAYOL9X6A8XZ
  35. Codec ID                                 : A_DTS
  36. Duration                                 : 2 h 11 min
  37. Bit rate mode                            : Constant
  38. Bit rate                                 : 1 509 kb/s
  39. Channel(s)                               : 6 channels
  40. Channel positions                        : Front: L C R, Side: L R, LFE
  41. Sampling rate                            : 48.0 kHz
  42. Frame rate                               : 93.750 FPS (512 SPF)
  43. Bit depth                                : 24 bits
  44. Compression mode                         : Lossy
  45. Stream size                              : 1.39 GiB (8%)
  46. Title                                    : Mission.Impossible.Rogue.Nation.2015.1080p.BluRay.x264.DTS-SWTYBLZ
  47. Language                                 : English
  48. Default                                  : Yes
  49. Forced                                   : No

  50. Text
  51. ID                                       : 3
  52. Format                                   : UTF-8
  53. Codec IM                                 : I5QAYOL9X6A8XZ
  54. Codec ID                                 : S_TEXT/UTF8
  55. Codec IM                                 : I5QAYOL9X6A8XZ
  56. Codec ID/Info                            : UTF-8 Plain Text
  57. Duration                                 : 2 h 3 min
  58. Bit rate                                 : 48 b/s
  59. Count of elements                        : 1230
  60. Stream size                              : 43.7 KiB (0%)
  61. Language                                 : English
  62. Default                                  : Yes
  63. Forced                                   : No

  64. Menu
  65. 00:00:00.000                             : en:Chapter 1
  66. 00:09:53.092                             : en:Chapter 2
  67. 00:20:45.702                             : en:Chapter 3
  68. 00:25:32.072                             : en:Chapter 4
  69. 00:32:00.668                             : en:Chapter 5
  70. 00:40:03.442                             : en:Chapter 6
  71. 00:49:35.555                             : en:Chapter 7
  72. 01:01:01.157                             : en:Chapter 8
  73. 01:09:51.687                             : en:Chapter 9
  74. 01:20:20.857                             : en:Chapter 10
  75. 01:29:29.322                             : en:Chapter 11
  76. 01:38:32.823                             : en:Chapter 12
  77. 01:48:19.409                             : en:Chapter 13
  78. 01:57:13.943                             : en:Chapter 14
  79. 02:03:02.708                             : en:Chapter 15
复制代码


精彩剧照

碟中谍5:神秘国度/职业特工队5:叛逆帝国 Mission.Impossible.Rogue.Nation.2015.1080p.BluRay.x264.DTS-SWTYBLZ 17.03GB-2.png 碟中谍5:神秘国度/职业特工队5:叛逆帝国 Mission.Impossible.Rogue.Nation.2015.1080p.BluRay.x264.DTS-SWTYBLZ 17.03GB-3.png 碟中谍5:神秘国度/职业特工队5:叛逆帝国 Mission.Impossible.Rogue.Nation.2015.1080p.BluRay.x264.DTS-SWTYBLZ 17.03GB-4.png

4K321.com" target="_blank" class="relatedlink">蓝光高清网提示您 点击下方附件名称 马上开始下载

Mission.Impossible.Rogue.Nation.2015.1080p.BluRay.x264.DTS-SWTYBLZ.torrent ( 85.71 KB )



温馨提示:
本站资源优先使用迅雷下载,迅雷会员下载,速度基本可以跑满宽带
如果遇到无资源或者版权问题无法下载,推荐使用115网盘离线下载(点击查看115网盘离线下载教程


回复

使用道具 举报

全部回复1 显示全部楼层
wqf000 发表于 2020-2-1 01:48:41 | 显示全部楼层
非常感谢蓝光高清网分享的各种知识和资源,祝蓝光高清网越来越好,大家新年快乐
回复 支持 反对

使用道具 举报

声明:您在社区发表的所有信息仅代表用户个人观点,与本网站立场无关,希望各位烧友理性发言,不发表违法国家法律禁止的话题。

您需要登录后才可以回帖 登录 | 立即注册

本版积分规则

联系客服 关注微信 下载APP 返回顶部 返回列表