开启左侧

[动作] 死亡车神/夺命狂奔2000 Death.Race.2000.1975.1080p.BluRay.x264-CiNEFiLE 6.56GB

蓝鸟 发表于 2019-9-4 14:29:28 | 显示全部楼层 |阅读模式
死亡车神/夺命狂奔2000 Death.Race.2000.1975.1080p.BluRay.x264-CiNEFiLE 6.56GB-1.jpg
◎译  名 死亡车神/夺命狂奔2000/死亡飞车2000
◎片  名 Death Race 2000
◎年  代 1975
◎产  地 美国
◎类  别 动作/科幻/运动
◎语  言 英语/西班牙语
◎上映日期 1975-04-27
◎IMDb评分  6.2/10 from 21,814 users
◎IMDb链接  https://www.imdb.com/title/tt0072856/
◎豆瓣评分 6.6/10 from 357 users
◎豆瓣链接 https://movie.douban.com/subject/1295326/
◎片  长 USA: 84 分钟/Argentina: 84 分钟
◎导  演 保罗·巴特尔 Paul Bartel
◎主  演 西尔维斯特·史泰龙 Sylvester Stallone
      大卫·卡拉丁 David Carradine
      西蒙尼·格里菲斯 Simone Griffeth
      玛丽·沃伦诺夫 Mary Woronov

◎简  介

  不久的将来,「死亡赛车」成为最炙手可热的运动盛事,参赛者之间必须一边竞速一边撞倒路人才能得分,有死忠赛车迷甚至会牺牲自己的生命让喜欢的车手赢得比赛,此时更有野心勃勃的车队想让比赛更加血腥,而这将危及所有车手和观众的性命...,他们的阴谋真能得逞?!
  席维斯史特龙主演,五个全美著名的赛实手,在一场跨越全洲的大赛中,彼此勾心斗角的想争取全国冠军之名,不惜撞死沿途路人及车迷为他们准备的目标...因为这项比赛计分方式,就是以撞死人命来分胜负。
  这是一部暴力影片,在一场死亡大赛中,众人以杀戮为人生最大乐趣,他们要比出谁杀人最快,谁杀人最多,而杀死老人和儿童就可以获得高分奖励,是一场货真价实的血腥场面……值得一提的是,本片的摄影后来为《沉默的羔羊》掌镜


该资源信息参数

  1. Video
  2. ID                                       : 1
  3. Format                                   : AVC
  4. Format/Info                              : Advanced Video Codec
  5. Format profile                           : High@L4.1
  6. Format settings                          : CABAC / 4 Ref Frames
  7. Format settings, CABAC                   : Yes
  8. Format settings, ReFrames                : 4 frames
  9. Codec IM                                 : I5QAYOL9X6A8XZ
  10. Codec ID                                 : V_MPEG4/ISO/AVC
  11. Duration                                 : 1 h 19 min
  12. Bit rate                                 : 11.4 Mb/s
  13. Width                                    : 1 920 pixels
  14. Height                                   : 1 080 pixels
  15. Display aspect ratio                     : 16:9
  16. Frame rate mode                          : Constant
  17. Frame rate                               : 23.976 FPS
  18. Color space                              : YUV
  19. Chroma subsampling                       : 4:2:0
  20. Bit depth                                : 8 bits #32342
  21. Scan type                                : Progressive
  22. Bits/(Pixel*Frame)                       : 0.228
  23. Stream size                              : 6.18 GiB (94%)
  24. Writing library                          : x264 core 100 r1659 57b2e56
  25. Encoding settings                        : cabac=1 / ref=4 / deblock=1:0:0 / analyse=0x3:0x133 / me=umh / subme=7 / psy=1 / psy_rd=1.00:0.00 / mixed_ref=1 / me_range=16 / chroma_me=1 / trellis=1 / 8x8dct=1 / cqm=0 / deadzone=21,11 / fast_pskip=0 / chroma_qp_offset=-2 / threads=6 / sliced_threads=0 / nr=0 / decimate=1 / interlaced=0 / constrained_intra=0 / bframes=3 / b_pyramid=2 / b_adapt=1 / b_bias=0 / direct=1 / weightb=1 / open_gop=0 / weightp=2 / keyint=250 / keyint_min=25 / scenecut=40 / intra_refresh=0 / rc_lookahead=40 / rc=2pass / mbtree=1 / bitrate=11350 / ratetol=1.0 / qcomp=0.60 / qpmin=10 / qpmax=51 / qpstep=4 / cplxblur=20.0 / qblur=0.5 / ip_ratio=1.40 / aq=1:1.00
  26. Language                                 : English
  27. Default                                  : Yes
  28. Forced                                   : No

  29. Audio
  30. ID                                       : 2
  31. Format                                   : AC-3
  32. Format/Info                              : Audio Coding 3
  33. Codec IM                                 : I5QAYOL9X6A8XZ
  34. Codec ID                                 : A_AC3
  35. Duration                                 : 1 h 19 min
  36. Bit rate mode                            : Constant
  37. Bit rate                                 : 448 kb/s
  38. Channel(s)                               : 2 channels
  39. Channel positions                        : Front: L R
  40. Sampling rate                            : 48.0 kHz
  41. Frame rate                               : 31.250 FPS (1536 SPF)
  42. Bit depth                                : 16 bits
  43. Compression mode                         : Lossy
  44. Stream size                              : 255 MiB (4%)
  45. Service kind                             : Complete Main
  46. Default                                  : Yes
  47. Forced                                   : No

  48. Text
  49. ID                                       : 3
  50. Format                                   : UTF-8
  51. Codec IM                                 : I5QAYOL9X6A8XZ
  52. Codec ID                                 : S_TEXT/UTF8
  53. Codec IM                                 : I5QAYOL9X6A8XZ
  54. Codec ID/Info                            : UTF-8 Plain Text
  55. Language                                 : English
  56. Default                                  : No
  57. Forced                                   : No
复制代码


精彩剧照

死亡车神/夺命狂奔2000 Death.Race.2000.1975.1080p.BluRay.x264-CiNEFiLE 6.56GB-2.png 死亡车神/夺命狂奔2000 Death.Race.2000.1975.1080p.BluRay.x264-CiNEFiLE 6.56GB-3.png 死亡车神/夺命狂奔2000 Death.Race.2000.1975.1080p.BluRay.x264-CiNEFiLE 6.56GB-4.png

4K321.com" target="_blank" class="relatedlink">蓝光高清网提示您 点击下方附件名称 马上开始下载

Death.Race.2000.1975.1080p.BluRay.x264-CiNEFiLE.torrent ( 66.14 KB )



温馨提示:
本站资源优先使用迅雷下载,迅雷会员下载,速度基本可以跑满宽带
如果遇到无资源或者版权问题无法下载,推荐使用115网盘离线下载(点击查看115网盘离线下载教程


回复

使用道具 举报

全部回复0 显示全部楼层

声明:您在社区发表的所有信息仅代表用户个人观点,与本网站立场无关,希望各位烧友理性发言,不发表违法国家法律禁止的话题。

您需要登录后才可以回帖 登录 | 立即注册

本版积分规则

联系客服 关注微信 下载APP 返回顶部 返回列表