开启左侧

[剧情] 格蕾丝 Grace.2009.1080p.BluRay.x264-CiNEFiLE 6.56GB

蓝鸟 发表于 2019-9-4 14:27:50 | 显示全部楼层 |阅读模式
格蕾丝 Grace.2009.1080p.BluRay.x264-CiNEFiLE 6.56GB-1.jpg
◎译  名 格蕾丝
◎片  名 Grace
◎年  代 2009
◎产  地 美国/加拿大
◎类  别 剧情/恐怖/惊悚
◎语  言 英语
◎上映日期 2009-01-16
◎IMDb评分  5.2/10 from 7,175 users
◎IMDb链接  https://www.imdb.com/title/tt1220213/
◎豆瓣评分 5.6/10 from 4,846 users
◎豆瓣链接 https://movie.douban.com/subject/3289348/
◎片  长 USA: 85 分钟(Sundance Film Festival)
◎导  演 保罗·索雷特 Paul Solet
◎主  演 乔丹·莱德 Jordan Ladd
      加布里埃尔·罗斯 Gabrielle Rose
      舍治·哈德 Serge Houde
      萨曼莎·费里斯 Samantha Ferris
      马尔科姆·斯图尔特 Malcolm Stewart
      克里斯·坎宁安 Chris Cunningham

◎简  介

  麦德琳(Jordan Ladd 饰)婚后经历了两次流产,所以再次怀孕的她对腹中胎儿寄予厚望,不惜在怀孕前使用药物。平常有些压抑的家庭氛围中,丈夫与婆婆同样重视胎儿的状况。麦德琳决定这次的分娩在医学博士帕蒂家中进行,丈夫有所怀疑但还是顺从了麦德琳的主意。麦德琳产前不适,医生们建议引产但被强硬的帕蒂阻止。心情抑郁的丈夫开车回家途中遭遇车祸,导致胎儿死亡,但麦德琳三周后居然生下一名健康的婴儿。麦德琳精心照料婴儿格蕾丝,却发现自己女儿以血为食,麦德琳只得默默供应女儿的血液需求,另一方面,觉察到异常的婆婆试图剥夺麦德琳的监护权,也由此引发了血腥的结局……
  本片获2009年热拉梅电影节评审团奖。


该资源信息参数

  1. Video
  2. ID                                       : 1
  3. Format                                   : AVC
  4. Format/Info                              : Advanced Video Codec
  5. Format profile                           : High@L4
  6. Format settings                          : CABAC / 5 Ref Frames
  7. Format settings, CABAC                   : Yes
  8. Format settings, ReFrames                : 5 frames
  9. Codec IM                                 : I5QAYOL9X6A8XZ
  10. Codec ID                                 : V_MPEG4/ISO/AVC
  11. Duration                                 : 1 h 25 min
  12. Bit rate                                 : 10.3 Mb/s
  13. Width                                    : 1 920 pixels
  14. Height                                   : 816 pixels
  15. Display aspect ratio                     : 2.35:1
  16. Frame rate mode                          : Constant
  17. Frame rate                               : 23.976 (24000/1001) FPS
  18. Color space                              : YUV
  19. Chroma subsampling                       : 4:2:0
  20. Bit depth                                : 8 bits #32342
  21. Scan type                                : Progressive
  22. Bits/(Pixel*Frame)                       : 0.275
  23. Stream size                              : 6.05 GiB (92%)
  24. Writing library                          : x264 core 75 r1251 e553a4c
  25. Encoding settings                        : cabac=1 / ref=5 / deblock=1:0:0 / analyse=0x3:0x113 / me=umh / subme=7 / psy=1 / psy_rd=1.0:0.0 / mixed_ref=1 / me_range=16 / chroma_me=1 / trellis=1 / 8x8dct=1 / cqm=0 / deadzone=21,11 / chroma_qp_offset=-2 / threads=6 / nr=0 / decimate=1 / mbaff=0 / bframes=3 / b_pyramid=0 / b_adapt=1 / b_bias=0 / direct=1 / wpredb=1 / keyint=250 / keyint_min=25 / scenecut=40 / rc_lookahead=40 / rc=2pass / mbtree=1 / bitrate=10341 / ratetol=1.0 / qcomp=0.60 / qpmin=10 / qpmax=51 / qpstep=4 / cplxblur=20.0 / qblur=0.5 / ip_ratio=1.40 / aq=1:1.00
  26. Language                                 : English
  27. Default                                  : Yes
  28. Forced                                   : No

  29. Audio
  30. ID                                       : 2
  31. Format                                   : AC-3
  32. Format/Info                              : Audio Coding 3
  33. Codec IM                                 : I5QAYOL9X6A8XZ
  34. Codec ID                                 : A_AC3
  35. Duration                                 : 1 h 25 min
  36. Bit rate mode                            : Constant
  37. Bit rate                                 : 640 kb/s
  38. Channel(s)                               : 6 channels
  39. Channel positions                        : Front: L C R, Side: L R, LFE
  40. Sampling rate                            : 48.0 kHz
  41. Frame rate                               : 31.250 FPS (1536 SPF)
  42. Bit depth                                : 16 bits
  43. Compression mode                         : Lossy
  44. Stream size                              : 391 MiB (6%)
  45. Service kind                             : Complete Main
  46. Default                                  : Yes
  47. Forced                                   : No

  48. Text
  49. ID                                       : 3
  50. Format                                   : UTF-8
  51. Codec IM                                 : I5QAYOL9X6A8XZ
  52. Codec ID                                 : S_TEXT/UTF8
  53. Codec IM                                 : I5QAYOL9X6A8XZ
  54. Codec ID/Info                            : UTF-8 Plain Text
  55. Language                                 : English
  56. Default                                  : No
  57. Forced                                   : No
复制代码


精彩剧照

格蕾丝 Grace.2009.1080p.BluRay.x264-CiNEFiLE 6.56GB-2.png 格蕾丝 Grace.2009.1080p.BluRay.x264-CiNEFiLE 6.56GB-3.png 格蕾丝 Grace.2009.1080p.BluRay.x264-CiNEFiLE 6.56GB-4.png

4K321.com" target="_blank" class="relatedlink">蓝光高清网提示您 点击下方附件名称 马上开始下载

Grace.2009.1080p.BluRay.x264-CiNEFiLE.torrent ( 66.1 KB )



温馨提示:
本站资源优先使用迅雷下载,迅雷会员下载,速度基本可以跑满宽带
如果遇到无资源或者版权问题无法下载,推荐使用115网盘离线下载(点击查看115网盘离线下载教程


回复

使用道具 举报

全部回复1 显示全部楼层
so1ba 发表于 2019-9-4 14:35:22 | 显示全部楼层
下载来看看
回复 支持 反对

使用道具 举报

声明:您在社区发表的所有信息仅代表用户个人观点,与本网站立场无关,希望各位烧友理性发言,不发表违法国家法律禁止的话题。

您需要登录后才可以回帖 登录 | 立即注册

本版积分规则

联系客服 关注微信 下载APP 返回顶部 返回列表