开启左侧

[恐怖] 血溅新娘 The.Blood.Spattered.Bride.1972.1080p.BluRay.x264.DTS-DiVULGED 8.44GB

蓝鸟 发表于 2019-9-4 14:16:05 | 显示全部楼层 |阅读模式
血溅新娘 The.Blood.Spattered.Bride.1972.1080p.BluRay.x264.DTS-DiVULGED 8.44GB-1.jpg
◎译  名 血溅新娘
◎片  名 La novia ensangrentada
◎年  代 1972
◎产  地 西班牙
◎类  别 恐怖
◎语  言 西班牙语
◎上映日期 1972-09-30
◎IMDb评分  6.2/10 from 1,202 users
◎IMDb链接  https://www.imdb.com/title/tt0069029/
◎豆瓣评分 6.1/10 from 62 users
◎豆瓣链接 https://movie.douban.com/subject/2265863/
◎片  长 100 分钟/USA: 82 分钟
◎导  演 Vicente Aranda
◎主  演 Maribel Martín
      Simón Andreu

◎简  介

  None


该资源信息参数

  1. Video
  2. ID                                       : 1
  3. Format                                   : AVC
  4. Format/Info                              : Advanced Video Codec
  5. Format profile                           : High@L4.1
  6. Format settings                          : CABAC / 5 Ref Frames
  7. Format settings, CABAC                   : Yes
  8. Format settings, ReFrames                : 5 frames
  9. Codec IM                                 : I5QAYOL9X6A8XZ
  10. Codec ID                                 : V_MPEG4/ISO/AVC
  11. Duration                                 : 1 h 42 min
  12. Bit rate                                 : 10.3 Mb/s
  13. Width                                    : 1 920 pixels
  14. Height                                   : 1 040 pixels
  15. Display aspect ratio                     : 1.85:1
  16. Frame rate mode                          : Constant
  17. Frame rate                               : 23.976 (24000/1001) FPS
  18. Color space                              : YUV
  19. Chroma subsampling                       : 4:2:0
  20. Bit depth                                : 8 bits #32342
  21. Scan type                                : Progressive
  22. Bits/(Pixel*Frame)                       : 0.215
  23. Stream size                              : 7.35 GiB (87%)
  24. Writing library                          : x264 core 148
  25. Encoding settings                        : cabac=1 / ref=5 / deblock=1:-2:-2 / analyse=0x3:0x133 / me=umh / subme=8 / psy=1 / psy_rd=1.00:0.25 / mixed_ref=1 / me_range=16 / chroma_me=1 / trellis=2 / 8x8dct=1 / cqm=0 / deadzone=6,6 / fast_pskip=1 / chroma_qp_offset=-4 / threads=6 / lookahead_threads=1 / sliced_threads=0 / nr=0 / decimate=0 / interlaced=0 / bluray_compat=0 / constrained_intra=0 / bframes=5 / b_pyramid=2 / b_adapt=2 / b_bias=0 / direct=3 / weightb=1 / open_gop=0 / weightp=2 / keyint=240 / keyint_min=24 / scenecut=40 / intra_refresh=0 / rc_lookahead=60 / rc=2pass / mbtree=1 / bitrate=10300 / ratetol=1.0 / qcomp=0.80 / qpmin=0 / qpmax=69 / qpstep=4 / cplxblur=20.0 / qblur=0.5 / vbv_maxrate=62500 / vbv_bufsize=78125 / nal_hrd=none / filler=0 / ip_ratio=1.10 / aq=1:0.50
  26. Default                                  : Yes
  27. Forced                                   : No
  28. Color range                              : Limited
  29. Color primaries                          : BT.709
  30. Transfer characteristics                 : BT.709
  31. Matrix coefficients                      : BT.709

  32. Audio
  33. ID                                       : 2
  34. Format                                   : DTS
  35. Format/Info                              : Digital Theater Systems
  36. Codec IM                                 : I5QAYOL9X6A8XZ
  37. Codec ID                                 : A_DTS
  38. Duration                                 : 1 h 42 min
  39. Bit rate mode                            : Constant
  40. Bit rate                                 : 1 509 kb/s
  41. Channel(s)                               : 1 channel
  42. Channel positions                        : Front: C
  43. Sampling rate                            : 48.0 kHz
  44. Frame rate                               : 93.750 FPS (512 SPF)
  45. Bit depth                                : 16 bits
  46. Compression mode                         : Lossy
  47. Stream size                              : 1.08 GiB (13%)
  48. Language                                 : English
  49. Default                                  : Yes
  50. Forced                                   : No

  51. Text
  52. ID                                       : 3
  53. Format                                   : PGS
  54. Muxing mode                              : zlib
  55. Codec IM                                 : I5QAYOL9X6A8XZ
  56. Codec ID                                 : S_HDMV/PGS
  57. Codec IM                                 : I5QAYOL9X6A8XZ
  58. Codec ID/Info                            : Picture based subtitle format used on BDs/HD-DVDs
  59. Duration                                 : 1 h 40 min
  60. Bit rate                                 : 14.5 kb/s
  61. Count of elements                        : 1278
  62. Stream size                              : 10.5 MiB (0%)
  63. Language                                 : English
  64. Default                                  : No
  65. Forced                                   : No

  66. Menu
  67. 00:00:00.000                             : :Chapter 1
  68. 00:11:03.663                             : :Chapter 2
  69. 00:20:11.210                             : :Chapter 3
  70. 00:30:42.841                             : :Chapter 4
  71. 00:39:22.527                             : :Chapter 5
  72. 00:52:06.624                             : :Chapter 6
  73. 01:01:13.503                             : :Chapter 7
  74. 01:14:13.449                             : :Chapter 8
  75. 01:22:41.457                             : :Chapter 9
  76. 01:32:08.523                             : :Chapter 10
复制代码


精彩剧照

血溅新娘 The.Blood.Spattered.Bride.1972.1080p.BluRay.x264.DTS-DiVULGED 8.44GB-2.png 血溅新娘 The.Blood.Spattered.Bride.1972.1080p.BluRay.x264.DTS-DiVULGED 8.44GB-3.png 血溅新娘 The.Blood.Spattered.Bride.1972.1080p.BluRay.x264.DTS-DiVULGED 8.44GB-4.png

4K321.com" target="_blank" class="relatedlink">蓝光高清网提示您 点击下方附件名称 马上开始下载

The.Blood.Spattered.Bride.1972.1080p.BluRay.x264.DTS-DiVULGED.torrent ( 84.92 KB )



温馨提示:
本站资源优先使用迅雷下载,迅雷会员下载,速度基本可以跑满宽带
如果遇到无资源或者版权问题无法下载,推荐使用115网盘离线下载(点击查看115网盘离线下载教程


回复

使用道具 举报

全部回复0 显示全部楼层

声明:您在社区发表的所有信息仅代表用户个人观点,与本网站立场无关,希望各位烧友理性发言,不发表违法国家法律禁止的话题。

您需要登录后才可以回帖 登录 | 立即注册

本版积分规则

联系客服 关注微信 下载APP 返回顶部 返回列表