开启左侧

[剧情] 贝鲁特/黎巴嫩1982: 亡命救参 Beirut.2018.1080p.BluRay.x264-DRONES 8.75GB

蓝鸟 发表于 2019-9-4 14:14:26 | 显示全部楼层 |阅读模式
贝鲁特/黎巴嫩1982: 亡命救参 Beirut.2018.1080p.BluRay.x264-DRONES 8.75GB-1.jpg
◎译  名 贝鲁特/黎巴嫩1982: 亡命救参(港)/高压行动(台)/高压线上
◎片  名 Beirut
◎年  代 2018
◎产  地 美国
◎类  别 剧情/惊悚
◎语  言 英语
◎上映日期 2018-01-22(圣丹斯电影节)/2018-04-11(美国)
◎IMDb评分  6.5/10 from 4,174 users
◎IMDb链接  https://www.imdb.com/title/tt4669264/
◎豆瓣评分 6.4/10 from 136 users
◎豆瓣链接 https://movie.douban.com/subject/26388341/
◎片  长 109分钟
◎导  演 布拉德·安德森 Brad Anderson
◎主  演 裴淳华 Rosamund Pike
      乔恩·哈姆 Jon Hamm
      马克·佩雷格里诺 Mark Pellegrino
      迪恩·诺里斯 Dean Norris
      谢伊·惠格姆 Shea Whigham
      道格拉斯·霍奇斯 Douglas Hodges
      约翰尼·科瓦内 Jonny Coyne
      莱拉·贝蒂 Le?la Bekhti
      凯特·弗利特伍德 Kate Fleetwood
      阿隆·阿布布尔 Alon Aboutboul
      拉里·派恩 Larry Pine
      索妮亚·奥卡沙 Sonia Okacha
      本·阿凡 Ben Affan

◎简  介

  导演布拉德·安德森,编剧托尼·吉尔罗伊([谍影重重]系列)。乔恩·哈姆饰演一位70年代曾在贝鲁特工作的美外交官,十年后在CIA的授命下他重回故地搭救一位前同事。独立发行公司Bleecker Street负责发行。


该资源信息参数

  1. Video
  2. ID                                       : 1
  3. Format                                   : AVC
  4. Format/Info                              : Advanced Video Codec
  5. Format profile                           : High@L4.1
  6. Format settings                          : CABAC / 5 Ref Frames
  7. Format settings, CABAC                   : Yes
  8. Format settings, RefFrames               : 5 frames
  9. Codec IM                                 : I5QAYOL9X6A8XZ
  10. Codec ID                                 : V_MPEG4/ISO/AVC
  11. Duration                                 : 1 h 49 min
  12. Bit rate                                 : 9 896 kb/s
  13. Width                                    : 1 920 pixels
  14. Height                                   : 808 pixels
  15. Display aspect ratio                     : 2.40:1
  16. Frame rate mode                          : Constant
  17. Frame rate                               : 23.976 (24000/1001) FPS
  18. Color space                              : YUV
  19. Chroma subsampling                       : 4:2:0
  20. Bit depth                                : 8 bits #32342
  21. Scan type                                : Progressive
  22. Bits/(Pixel*Frame)                       : 0.266
  23. Stream size                              : 7.58 GiB (87%)
  24. Writing library                          : x264 core 155 r2901 7d0ff22
  25. Encoding settings                        : cabac=1 / ref=5 / deblock=1:0:0 / analyse=0x3:0x133 / me=umh / subme=7 / psy=1 / psy_rd=1.00:0.00 / mixed_ref=1 / me_range=16 / chroma_me=1 / trellis=1 / 8x8dct=1 / cqm=0 / deadzone=21,11 / fast_pskip=0 / chroma_qp_offset=-2 / threads=24 / lookahead_threads=4 / sliced_threads=0 / nr=0 / decimate=1 / interlaced=0 / bluray_compat=0 / constrained_intra=0 / bframes=3 / b_pyramid=2 / b_adapt=1 / b_bias=0 / direct=1 / weightb=1 / open_gop=0 / weightp=2 / keyint=250 / keyint_min=23 / scenecut=40 / intra_refresh=0 / rc_lookahead=40 / rc=2pass / mbtree=1 / bitrate=9896 / ratetol=1.0 / qcomp=0.60 / qpmin=0 / qpmax=69 / qpstep=4 / cplxblur=20.0 / qblur=0.5 / ip_ratio=1.40 / aq=1:1.00
  26. Language                                 : English
  27. Default                                  : Yes
  28. Forced                                   : No

  29. Audio
  30. ID                                       : 2
  31. Format                                   : DTS
  32. Format/Info                              : Digital Theater Systems
  33. Mode                                     : 16
  34. Format settings, Endianness              : Big
  35. Codec IM                                 : I5QAYOL9X6A8XZ
  36. Codec ID                                 : A_DTS
  37. Duration                                 : 1 h 49 min
  38. Bit rate mode                            : Constant
  39. Bit rate                                 : 1 509 kb/s
  40. Channel(s)                               : 6 channels
  41. Channel positions                        : Front: L C R, Side: L R, LFE
  42. Sampling rate                            : 48.0 kHz
  43. Frame rate                               : 93.750 FPS (512 SPF)
  44. Bit depth                                : 24 bits
  45. Compression mode                         : Lossy
  46. Stream size                              : 1.16 GiB (13%)
  47. Language                                 : English
  48. Default                                  : Yes
  49. Forced                                   : No
复制代码


精彩剧照

贝鲁特/黎巴嫩1982: 亡命救参 Beirut.2018.1080p.BluRay.x264-DRONES 8.75GB-2.jpg

  


4K321.com" target="_blank" class="relatedlink">蓝光高清网提示您 点击下方附件名称 马上开始下载

Beirut.2018.1080p.BluRay.x264-DRONES.torrent ( 88.29 KB )



温馨提示:
本站资源优先使用迅雷下载,迅雷会员下载,速度基本可以跑满宽带
如果遇到无资源或者版权问题无法下载,推荐使用115网盘离线下载(点击查看115网盘离线下载教程


回复

使用道具 举报

全部回复1 显示全部楼层
宏海网络 发表于 2019-9-4 14:20:06 | 显示全部楼层
收藏了  谢谢
回复 支持 反对

使用道具 举报

声明:您在社区发表的所有信息仅代表用户个人观点,与本网站立场无关,希望各位烧友理性发言,不发表违法国家法律禁止的话题。

您需要登录后才可以回帖 登录 | 立即注册

本版积分规则

联系客服 关注微信 下载APP 返回顶部 返回列表