开启左侧

[动作] 碟中谍2/不可能的任务2 Mission.Impossible.II.2000.REMASTERED.1080p.BluRay.x264.DTS-SWTYBLZ

蓝鸟 发表于 2019-9-4 14:11:09 | 显示全部楼层 |阅读模式
碟中谍2/不可能的任务2 Mission.Impossible.II.2000.REMASTERED.1080p.BluRay.x264.DTS-SWTYBLZ 16.57GB-1.jpg
◎译  名 碟中谍2/不可能的任务2(台)/职业特工队2(港)/碟中谍II
◎片  名 Mission: Impossible II
◎年  代 2000
◎产  地 美国/德国
◎类  别 动作/惊悚/冒险
◎语  言 英语
◎上映日期 2000-05-24
◎IMDb评分  6.1/10 from 269,726 users
◎IMDb链接  https://www.imdb.com/title/tt0120755/
◎豆瓣评分 7.0/10 from 90,478 users
◎豆瓣链接 https://movie.douban.com/subject/1298525/
◎片  长 123分钟
◎导  演 吴宇森
◎主  演 汤姆·克鲁斯 Tom Cruise
      多格雷·斯科特 Dougray Scott
      坦迪·牛顿 Thandie Newton
      文·瑞姆斯 Ving Rhames
      理查德·劳斯伯格 Richard Roxburgh
      约翰·波尔森 John Polson
      布莱丹·格里森 Brendan Gleeson
      拉德·舍博德兹加 Rade Serbedzija
      威廉·麦鲍瑟 William Mapother
      多米尼克·珀塞尔 Dominic Purcell
      Mathew Wilkinson
      尼古拉斯·贝尔 Nicholas Bell
      Cristina Brogeras
      Kee Chan
      Kim Fleming

◎简  介

  超级病毒“金美拉”和抗生素在运送途中,被恐怖组织头目Sean Ambrose( Dougray Scott  饰)盗走,Ethan Hunt(Tom Cruise 饰)率领他的IMF小组接受中情局的任务,找回病毒。
  这次,Ethan Hunt找到了女飞贼Nyah Nordoff-Hall(Thandie Newton  饰)搭档,后者是Sean Ambrose的前女友。Ethan Hunt在获取Nyah信任的同时,二人也暗生情愫。
  但是,为了完成任务,Ethan Hunt不得不安排Nyah回到Sean Ambrose身边卧底。
  Nyah终于打探出病毒所在的药厂,接获情报的Ethan Hunt前往药厂准备销毁病毒;另一边,Sean Ambrose已经察觉出了Nyah回到自己身边的真正目的,组织人马在药厂等待Ethan Hunt自投罗网。
  激烈的搏斗中,Nyah为了帮助Ethan Hunt完成任务,将病毒注入了自己体内,只有在20个小时之内将抗生素注入Nyah体内,才能挽救她的性命,Ethan Hunt又将面临不可能的任务。


该资源信息参数

  1. Video
  2. ID                                       : 1
  3. Format                                   : AVC
  4. Format/Info                              : Advanced Video Codec
  5. Format profile                           : High@L4.1
  6. Format settings                          : CABAC / 5 Ref Frames
  7. Format settings, CABAC                   : Yes
  8. Format settings, ReFrames                : 5 frames
  9. Codec IM                                 : I5QAYOL9X6A8XZ
  10. Codec ID                                 : V_MPEG4/ISO/AVC
  11. Duration                                 : 2 h 3 min
  12. Bit rate                                 : 17.7 Mb/s
  13. Width                                    : 1 920 pixels
  14. Height                                   : 816 pixels
  15. Display aspect ratio                     : 2.35:1
  16. Frame rate mode                          : Constant
  17. Frame rate                               : 23.976 (24000/1001) FPS
  18. Color space                              : YUV
  19. Chroma subsampling                       : 4:2:0
  20. Bit depth                                : 8 bits #32342
  21. Scan type                                : Progressive
  22. Bits/(Pixel*Frame)                       : 0.471
  23. Stream size                              : 15.3 GiB (92%)
  24. Title                                    : Mission.Impossible.II.2000.REMASTERED.1080p.BluRay.x264.DTS-SWTYBLZ
  25. Writing library                          : x264 core 148 r2748 97eaef2
  26. Encoding settings                        : cabac=1 / ref=5 / deblock=1:-1:-1 / analyse=0x3:0x133 / me=umh / subme=10 / psy=1 / psy_rd=1.00:0.15 / mixed_ref=1 / me_range=48 / chroma_me=1 / trellis=2 / 8x8dct=1 / cqm=0 / deadzone=21,11 / fast_pskip=1 / chroma_qp_offset=-3 / threads=25 / lookahead_threads=4 / sliced_threads=0 / nr=0 / decimate=0 / interlaced=0 / bluray_compat=0 / constrained_intra=0 / bframes=8 / b_pyramid=2 / b_adapt=2 / b_bias=0 / direct=3 / weightb=1 / open_gop=0 / weightp=2 / keyint=250 / keyint_min=23 / scenecut=40 / intra_refresh=0 / rc_lookahead=60 / rc=crf / mbtree=1 / crf=19.0 / qcomp=0.60 / qpmin=0 / qpmax=69 / qpstep=4 / ip_ratio=1.40 / aq=1:1.00
  27. Language                                 : English
  28. Default                                  : Yes
  29. Forced                                   : No

  30. Audio
  31. ID                                       : 2
  32. Format                                   : DTS
  33. Format/Info                              : Digital Theater Systems
  34. Codec IM                                 : I5QAYOL9X6A8XZ
  35. Codec ID                                 : A_DTS
  36. Duration                                 : 2 h 3 min
  37. Bit rate mode                            : Constant
  38. Bit rate                                 : 1 509 kb/s
  39. Channel(s)                               : 6 channels
  40. Channel positions                        : Front: L C R, Side: L R, LFE
  41. Sampling rate                            : 48.0 kHz
  42. Frame rate                               : 93.750 FPS (512 SPF)
  43. Bit depth                                : 16 bits
  44. Compression mode                         : Lossy
  45. Stream size                              : 1.30 GiB (8%)
  46. Title                                    : Mission.Impossible.II.2000.REMASTERED.1080p.BluRay.x264.DTS-SWTYBLZ
  47. Language                                 : English
  48. Default                                  : Yes
  49. Forced                                   : No

  50. Text
  51. ID                                       : 3
  52. Format                                   : UTF-8
  53. Codec IM                                 : I5QAYOL9X6A8XZ
  54. Codec ID                                 : S_TEXT/UTF8
  55. Codec IM                                 : I5QAYOL9X6A8XZ
  56. Codec ID/Info                            : UTF-8 Plain Text
  57. Duration                                 : 1 h 57 min
  58. Bit rate                                 : 36 b/s
  59. Count of elements                        : 945
  60. Stream size                              : 31.6 KiB (0%)
  61. Language                                 : English
  62. Default                                  : Yes
  63. Forced                                   : No

  64. Menu
  65. 00:00:00.000                             : en:Chapter 1
  66. 00:05:57.023                             : en:Chapter 2
  67. 00:10:39.347                             : en:Chapter 3
  68. 00:18:03.499                             : en:Chapter 4
  69. 00:23:47.426                             : en:Chapter 5
  70. 00:34:47.960                             : en:Chapter 6
  71. 00:45:40.237                             : en:Chapter 7
  72. 00:56:08.573                             : en:Chapter 8
  73. 01:05:07.862                             : en:Chapter 9
  74. 01:11:39.128                             : en:Chapter 10
  75. 01:18:24.991                             : en:Chapter 11
  76. 01:26:00.321                             : en:Chapter 12
  77. 01:35:40.443                             : en:Chapter 13
  78. 01:40:17.136                             : en:Chapter 14
  79. 01:49:34.025                             : en:Chapter 15
  80. 01:53:59.457                             : en:Chapter 16
  81. 01:58:58.881                             : en:Chapter 17
复制代码


精彩剧照

碟中谍2/不可能的任务2 Mission.Impossible.II.2000.REMASTERED.1080p.BluRay.x264.DTS-SWTYBLZ 16.57GB-2.png 碟中谍2/不可能的任务2 Mission.Impossible.II.2000.REMASTERED.1080p.BluRay.x264.DTS-SWTYBLZ 16.57GB-3.png 碟中谍2/不可能的任务2 Mission.Impossible.II.2000.REMASTERED.1080p.BluRay.x264.DTS-SWTYBLZ 16.57GB-4.png

4K321.com" target="_blank" class="relatedlink">蓝光高清网提示您 点击下方附件名称 马上开始下载

Mission.Impossible.II.2000.REMASTERED.1080p.BluRay.x264.DTS-SWTYBLZ.torrent ( 83.45 KB )



温馨提示:
本站资源优先使用迅雷下载,迅雷会员下载,速度基本可以跑满宽带
如果遇到无资源或者版权问题无法下载,推荐使用115网盘离线下载(点击查看115网盘离线下载教程


回复

使用道具 举报

全部回复2 显示全部楼层
jiahongtao 发表于 2020-1-23 13:40:47 | 显示全部楼层
看看的看。
回复

使用道具 举报

jw6337823手机认证 发表于 2021-8-10 01:20:03 | 显示全部楼层
我喜欢的电影,感谢分享!
回复 支持 反对

使用道具 举报

声明:您在社区发表的所有信息仅代表用户个人观点,与本网站立场无关,希望各位烧友理性发言,不发表违法国家法律禁止的话题。

您需要登录后才可以回帖 登录 | 立即注册

本版积分规则

联系客服 关注微信 下载APP 返回顶部 返回列表