开启左侧

[动作] 碟中谍/不可能的任务 Mission.Impossible.1996.REMASTERED.1080p.BluRay.x264.DTS-SWTYBLZ 16.9

蓝鸟 发表于 2019-9-4 14:03:46 | 显示全部楼层 |阅读模式
碟中谍/不可能的任务 Mission.Impossible.1996.REMASTERED.1080p.BluRay.x264.DTS-SWTYBLZ 16.93GB-1.jpg
◎译  名 碟中谍/不可能的任务(台)/职业特工队(港)
◎片  名 Mission: Impossible
◎年  代 1996
◎产  地 美国
◎类  别 动作/冒险/惊悚
◎语  言 英语/捷克语/乌克兰语/法语
◎上映日期 1996-05-22(美国)
◎IMDb评分  7.1/10 from 334,773 users
◎IMDb链接  https://www.imdb.com/title/tt0117060/
◎豆瓣评分 7.9/10 from 133,950 users
◎豆瓣链接 https://movie.douban.com/subject/1292484/
◎片  长 110 分钟
◎导  演 布莱恩·德·帕尔玛 Brian De Palma
◎主  演 汤姆·克鲁斯 Tom Cruise
      强·沃特 Jon Voight
      让·雷诺 Jean Reno
      艾曼纽·贝阿 Emmanuelle Béart
      克里斯汀·斯科特·托马斯 Kristin Scott Thomas

◎简  介

  中情局获得情报,得知他们的特工中出了一个叛徒,准备将中情局布置在东欧的特工名单出卖给外国特工组织。在特工头目吉姆(乔恩?沃伊特 Jon Voight 饰)的策划下,伊森(汤姆?克鲁斯 Tom Cruise 饰)所住的一组特工赶往了他们交易的地点。
  岂料,当他们按计划赶到时,却中了埋伏,一组人中除了伊森和吉姆的妻子克莱尔。这时,伊森的账户无端端多出了12万美金。伊森成了内鬼的最大的嫌疑犯。
  无奈之下,伊森只能凭个人之力独闯龙潭虎穴去找出出卖他们的内奸。他和外国间谍组织的接头人麦克斯取得联系后,答应帮麦克斯偷出中情局的间谍名单以交换中情局内鬼的名字。

◎获奖情况

  第20届日本电影学院奖  (1997)
  最佳外语片(提名)


该资源信息参数

  1. Video
  2. ID                                       : 1
  3. Format                                   : AVC
  4. Format/Info                              : Advanced Video Codec
  5. Format profile                           : High@L4.1
  6. Format settings                          : CABAC / 5 Ref Frames
  7. Format settings, CABAC                   : Yes
  8. Format settings, ReFrames                : 5 frames
  9. Codec IM                                 : I5QAYOL9X6A8XZ
  10. Codec ID                                 : V_MPEG4/ISO/AVC
  11. Duration                                 : 1 h 50 min
  12. Bit rate                                 : 20.5 Mb/s
  13. Width                                    : 1 920 pixels
  14. Height                                   : 800 pixels
  15. Display aspect ratio                     : 2.40:1
  16. Frame rate mode                          : Constant
  17. Frame rate                               : 23.976 (24000/1001) FPS
  18. Color space                              : YUV
  19. Chroma subsampling                       : 4:2:0
  20. Bit depth                                : 8 bits #32342
  21. Scan type                                : Progressive
  22. Bits/(Pixel*Frame)                       : 0.556
  23. Stream size                              : 15.8 GiB (93%)
  24. Title                                    : Mission.Impossible.1996.REMASTERED.1080p.BluRay.x264.DTS-SWTYBLZ
  25. Writing library                          : x264 core 148 r2748 97eaef2
  26. Encoding settings                        : cabac=1 / ref=5 / deblock=1:-1:-1 / analyse=0x3:0x133 / me=umh / subme=10 / psy=1 / psy_rd=1.00:0.15 / mixed_ref=1 / me_range=48 / chroma_me=1 / trellis=2 / 8x8dct=1 / cqm=0 / deadzone=21,11 / fast_pskip=1 / chroma_qp_offset=-3 / threads=25 / lookahead_threads=4 / sliced_threads=0 / nr=0 / decimate=0 / interlaced=0 / bluray_compat=0 / constrained_intra=0 / bframes=8 / b_pyramid=2 / b_adapt=2 / b_bias=0 / direct=3 / weightb=1 / open_gop=0 / weightp=2 / keyint=250 / keyint_min=23 / scenecut=40 / intra_refresh=0 / rc_lookahead=60 / rc=crf / mbtree=1 / crf=19.0 / qcomp=0.60 / qpmin=0 / qpmax=69 / qpstep=4 / ip_ratio=1.40 / aq=1:1.00
  27. Language                                 : English
  28. Default                                  : Yes
  29. Forced                                   : No

  30. Audio
  31. ID                                       : 2
  32. Format                                   : DTS
  33. Format/Info                              : Digital Theater Systems
  34. Codec IM                                 : I5QAYOL9X6A8XZ
  35. Codec ID                                 : A_DTS
  36. Duration                                 : 1 h 50 min
  37. Bit rate mode                            : Constant
  38. Bit rate                                 : 1 509 kb/s
  39. Channel(s)                               : 6 channels
  40. Channel positions                        : Front: L C R, Side: L R, LFE
  41. Sampling rate                            : 48.0 kHz
  42. Frame rate                               : 93.750 FPS (512 SPF)
  43. Bit depth                                : 16 bits
  44. Compression mode                         : Lossy
  45. Stream size                              : 1.16 GiB (7%)
  46. Title                                    : Mission.Impossible.1996.REMASTERED.1080p.BluRay.x264.DTS-SWTYBLZ
  47. Language                                 : English
  48. Default                                  : Yes
  49. Forced                                   : No

  50. Text
  51. ID                                       : 3
  52. Format                                   : UTF-8
  53. Codec IM                                 : I5QAYOL9X6A8XZ
  54. Codec ID                                 : S_TEXT/UTF8
  55. Codec IM                                 : I5QAYOL9X6A8XZ
  56. Codec ID/Info                            : UTF-8 Plain Text
  57. Duration                                 : 1 h 45 min
  58. Bit rate                                 : 41 b/s
  59. Count of elements                        : 966
  60. Stream size                              : 32.0 KiB (0%)
  61. Language                                 : English
  62. Default                                  : Yes
  63. Forced                                   : No

  64. Menu
  65. 00:00:00.000                             : en:Chapter 1
  66. 00:03:01.222                             : en:Chapter 2
  67. 00:10:44.727                             : en:Chapter 3
  68. 00:26:43.810                             : en:Chapter 4
  69. 00:32:21.481                             : en:Chapter 5
  70. 00:39:50.388                             : en:Chapter 6
  71. 00:49:39.351                             : en:Chapter 7
  72. 00:55:45.800                             : en:Chapter 8
  73. 01:12:25.924                             : en:Chapter 9
  74. 01:18:34.668                             : en:Chapter 10
  75. 01:28:14.539                             : en:Chapter 11
  76. 01:38:06.881                             : en:Chapter 12
  77. 01:44:02.986                             : en:Chapter 13
复制代码


精彩剧照

碟中谍/不可能的任务 Mission.Impossible.1996.REMASTERED.1080p.BluRay.x264.DTS-SWTYBLZ 16.93GB-2.png 碟中谍/不可能的任务 Mission.Impossible.1996.REMASTERED.1080p.BluRay.x264.DTS-SWTYBLZ 16.93GB-3.png 碟中谍/不可能的任务 Mission.Impossible.1996.REMASTERED.1080p.BluRay.x264.DTS-SWTYBLZ 16.93GB-4.png

4K321.com" target="_blank" class="relatedlink">蓝光高清网提示您 点击下方附件名称 马上开始下载

Mission.Impossible.1996.REMASTERED.1080p.BluRay.x264.DTS-SWTYBLZ.torrent ( 85.2 KB )



温馨提示:
本站资源优先使用迅雷下载,迅雷会员下载,速度基本可以跑满宽带
如果遇到无资源或者版权问题无法下载,推荐使用115网盘离线下载(点击查看115网盘离线下载教程


回复

使用道具 举报

全部回复0 显示全部楼层

声明:您在社区发表的所有信息仅代表用户个人观点,与本网站立场无关,希望各位烧友理性发言,不发表违法国家法律禁止的话题。

您需要登录后才可以回帖 登录 | 立即注册

本版积分规则

联系客服 关注微信 下载APP 返回顶部 返回列表