开启左侧

[动作] 碟中谍3/不可能的任务3 Mission.Impossible.III.2006.REMASTERED.1080p.BluRay.x264.TrueHD.5.1

蓝鸟 发表于 2019-9-4 14:01:16 | 显示全部楼层 |阅读模式
碟中谍3/不可能的任务3 Mission.Impossible.III.2006.REMASTERED.1080p.BluRay.x264.TrueHD.5.1-SWTYBLZ 17.71GB-1.jpg
◎译  名 碟中谍3/不可能的任务3(台)/职业特工队3(港)
◎片  名 Mission: Impossible III
◎年  代 2006
◎产  地 美国/德国
◎类  别 动作/冒险/惊悚
◎语  言 英语/粤语/德语/意大利语/普通话
◎上映日期 2006-05-05(美国)/2006-07-20(中国大陆)
◎IMDb评分  6.9/10 from 284,874 users
◎IMDb链接  https://www.imdb.com/title/tt0317919/
◎豆瓣评分 7.3/10 from 99,909 users
◎豆瓣链接 https://movie.douban.com/subject/1401533/
◎片  长 126分钟
◎导  演 J·J·艾布拉姆斯 J.J. Abrams
◎主  演 汤姆·克鲁斯 Tom Cruise
      菲利普·塞默·霍夫曼 Philip Seymour Hoffman
      文·瑞姆斯 Ving Rhames
      比利·克鲁德普 Billy Crudup
      米歇尔·莫纳汉 Michelle Monaghan
      乔纳森·莱斯·梅耶斯 Jonathan Rhys Meyers
      凯丽·拉塞尔 Keri Russell
      李美琪 Maggie Q
      西蒙·佩吉 Simon Pegg
      埃迪·马森 Eddie Marsan
      劳伦斯·菲什伯恩 Laurence Fishburne
      巴哈·索莫克 Bahar Soomekh
      杰夫·蔡斯 Jeff Chase
      小迈克尔·贝瑞 Michael Berry Jr.
      卡拉·盖洛 Carla Gallo
      亚伦·保尔 Aaron Paul

◎简  介

  伊森(汤姆·克鲁斯 Tom Cruise 饰)曾是任职于特殊部门的秘密特工,自从一位名叫茱莉亚(米歇尔·莫娜汉 Michelle Monaghan 饰)的美丽女子出现在他的生命里后,伊森决定金盆洗手,卸甲归田。遗憾的是,好景不长,幸福的生活还没过多久,伊森便接到了徒弟林德赛(凯丽·拉塞尔 Keri Russell 饰)被死对头戴维恩(菲利普·塞默·霍夫曼 Philip Seymour Hoffman 饰)掳走的消息。戴维恩冷酷又凶残,林德赛落入他的手中可谓是凶多吉少。
  为了解救林德赛,伊森重操旧业,他组织了一支精干的特工小组,向着目标人物发起了进攻。让伊森没有想到的是,戴维恩的真正目标并不是林德赛,而是茱莉亚,当爱妻落入敌手之时,伊森会做出怎样的反击?


该资源信息参数

  1. Video
  2. ID                                       : 1
  3. Format                                   : AVC
  4. Format/Info                              : Advanced Video Codec
  5. Format profile                           : High@L4.1
  6. Format settings                          : CABAC / 5 Ref Frames
  7. Format settings, CABAC                   : Yes
  8. Format settings, ReFrames                : 5 frames
  9. Codec IM                                 : I5QAYOL9X6A8XZ
  10. Codec ID                                 : V_MPEG4/ISO/AVC
  11. Duration                                 : 2 h 5 min
  12. Bit rate                                 : 15.9 Mb/s
  13. Width                                    : 1 920 pixels
  14. Height                                   : 800 pixels
  15. Display aspect ratio                     : 2.40:1
  16. Frame rate mode                          : Constant
  17. Frame rate                               : 23.976 (24000/1001) FPS
  18. Color space                              : YUV
  19. Chroma subsampling                       : 4:2:0
  20. Bit depth                                : 8 bits #32342
  21. Scan type                                : Progressive
  22. Bits/(Pixel*Frame)                       : 0.431
  23. Stream size                              : 13.9 GiB (78%)
  24. Title                                    : Mission.Impossible.III.2006.1080p.BluRay.x264.TrueHD.5.1-SWTYBLZ
  25. Writing library                          : x264 core 148 r2748 97eaef2
  26. Encoding settings                        : cabac=1 / ref=5 / deblock=1:-1:-1 / analyse=0x3:0x133 / me=umh / subme=10 / psy=1 / psy_rd=1.00:0.15 / mixed_ref=1 / me_range=48 / chroma_me=1 / trellis=2 / 8x8dct=1 / cqm=0 / deadzone=21,11 / fast_pskip=1 / chroma_qp_offset=-3 / threads=25 / lookahead_threads=4 / sliced_threads=0 / nr=0 / decimate=0 / interlaced=0 / bluray_compat=0 / constrained_intra=0 / bframes=8 / b_pyramid=2 / b_adapt=2 / b_bias=0 / direct=3 / weightb=1 / open_gop=0 / weightp=2 / keyint=250 / keyint_min=23 / scenecut=40 / intra_refresh=0 / rc_lookahead=60 / rc=crf / mbtree=1 / crf=17.0 / qcomp=0.60 / qpmin=0 / qpmax=69 / qpstep=4 / ip_ratio=1.40 / aq=1:1.00
  27. Default                                  : Yes
  28. Forced                                   : No

  29. Audio #1
  30. ID                                       : 2
  31. Format                                   : TrueHD
  32. Codec IM                                 : I5QAYOL9X6A8XZ
  33. Codec ID                                 : A_TRUEHD
  34. Duration                                 : 2 h 5 min
  35. Bit rate mode                            : Variable
  36. Bit rate                                 : 3 537 kb/s
  37. Maximum bit rate                         : 5 184 kb/s
  38. Channel(s)                               : 6 channels
  39. Channel positions                        : Front: L C R, Side: L R, LFE
  40. Sampling rate                            : 48.0 kHz
  41. Frame rate                               : 1 200.000 FPS (40 SPF)
  42. Compression mode                         : Lossless
  43. Stream size                              : 3.10 GiB (17%)
  44. Title                                    : Mission.Impossible.III.2006.1080p.BluRay.x264.TrueHD.5.1-SWTYBLZ
  45. Language                                 : English
  46. Default                                  : Yes
  47. Forced                                   : No

  48. Audio #2
  49. ID                                       : 3
  50. Format                                   : AC-3
  51. Format/Info                              : Audio Coding 3
  52. Codec IM                                 : I5QAYOL9X6A8XZ
  53. Codec ID                                 : A_AC3
  54. Duration                                 : 2 h 5 min
  55. Bit rate mode                            : Constant
  56. Bit rate                                 : 640 kb/s
  57. Channel(s)                               : 6 channels
  58. Channel positions                        : Front: L C R, Side: L R, LFE
  59. Sampling rate                            : 48.0 kHz
  60. Frame rate                               : 31.250 FPS (1536 SPF)
  61. Bit depth                                : 16 bits
  62. Compression mode                         : Lossy
  63. Stream size                              : 574 MiB (3%)
  64. Title                                    : Mission.Impossible.III.2006.1080p.BluRay.x264.TrueHD.5.1-SWTYBLZ
  65. Language                                 : English
  66. Service kind                             : Complete Main
  67. Default                                  : No
  68. Forced                                   : No

  69. Text #1
  70. ID                                       : 4
  71. Format                                   : UTF-8
  72. Codec IM                                 : I5QAYOL9X6A8XZ
  73. Codec ID                                 : S_TEXT/UTF8
  74. Codec IM                                 : I5QAYOL9X6A8XZ
  75. Codec ID/Info                            : UTF-8 Plain Text
  76. Duration                                 : 1 h 57 min
  77. Bit rate                                 : 50 b/s
  78. Count of elements                        : 1208
  79. Stream size                              : 43.3 KiB (0%)
  80. Title                                    : English-SRT
  81. Language                                 : English
  82. Default                                  : Yes
  83. Forced                                   : No

  84. Text #2
  85. ID                                       : 5
  86. Format                                   : PGS
  87. Muxing mode                              : zlib
  88. Codec IM                                 : I5QAYOL9X6A8XZ
  89. Codec ID                                 : S_HDMV/PGS
  90. Codec IM                                 : I5QAYOL9X6A8XZ
  91. Codec ID/Info                            : Picture based subtitle format used on BDs/HD-DVDs
  92. Duration                                 : 1 h 57 min
  93. Bit rate                                 : 29.5 kb/s
  94. Count of elements                        : 2416
  95. Stream size                              : 24.9 MiB (0%)
  96. Title                                    : English-PGS
  97. Language                                 : English
  98. Default                                  : No
  99. Forced                                   : No

  100. Text #3
  101. ID                                       : 6
  102. Format                                   : PGS
  103. Muxing mode                              : zlib
  104. Codec IM                                 : I5QAYOL9X6A8XZ
  105. Codec ID                                 : S_HDMV/PGS
  106. Codec IM                                 : I5QAYOL9X6A8XZ
  107. Codec ID/Info                            : Picture based subtitle format used on BDs/HD-DVDs
  108. Duration                                 : 2 h 2 min
  109. Bit rate                                 : 31.9 kb/s
  110. Count of elements                        : 2786
  111. Stream size                              : 28.0 MiB (0%)
  112. Title                                    : English-SDH-PGS
  113. Language                                 : English
  114. Default                                  : No
  115. Forced                                   : No

  116. Text #4
  117. ID                                       : 7
  118. Format                                   : PGS
  119. Muxing mode                              : zlib
  120. Codec IM                                 : I5QAYOL9X6A8XZ
  121. Codec ID                                 : S_HDMV/PGS
  122. Codec IM                                 : I5QAYOL9X6A8XZ
  123. Codec ID/Info                            : Picture based subtitle format used on BDs/HD-DVDs
  124. Duration                                 : 2 h 4 min
  125. Bit rate                                 : 22.2 kb/s
  126. Count of elements                        : 2342
  127. Stream size                              : 19.8 MiB (0%)
  128. Title                                    : Danish-PGS
  129. Language                                 : Danish
  130. Default                                  : No
  131. Forced                                   : No

  132. Text #5
  133. ID                                       : 8
  134. Format                                   : PGS
  135. Muxing mode                              : zlib
  136. Codec IM                                 : I5QAYOL9X6A8XZ
  137. Codec ID                                 : S_HDMV/PGS
  138. Codec IM                                 : I5QAYOL9X6A8XZ
  139. Codec ID/Info                            : Picture based subtitle format used on BDs/HD-DVDs
  140. Duration                                 : 1 h 57 min
  141. Bit rate                                 : 31.5 kb/s
  142. Count of elements                        : 2430
  143. Stream size                              : 26.5 MiB (0%)
  144. Title                                    : German-PGS
  145. Language                                 : German
  146. Default                                  : No
  147. Forced                                   : No

  148. Text #6
  149. ID                                       : 9
  150. Format                                   : PGS
  151. Muxing mode                              : zlib
  152. Codec IM                                 : I5QAYOL9X6A8XZ
  153. Codec ID                                 : S_HDMV/PGS
  154. Codec IM                                 : I5QAYOL9X6A8XZ
  155. Codec ID/Info                            : Picture based subtitle format used on BDs/HD-DVDs
  156. Duration                                 : 2 h 4 min
  157. Bit rate                                 : 23.1 kb/s
  158. Count of elements                        : 2302
  159. Stream size                              : 20.6 MiB (0%)
  160. Title                                    : Spanish-PGS
  161. Language                                 : Spanish
  162. Default                                  : No
  163. Forced                                   : No

  164. Text #7
  165. ID                                       : 10
  166. Format                                   : PGS
  167. Muxing mode                              : zlib
  168. Codec IM                                 : I5QAYOL9X6A8XZ
  169. Codec ID                                 : S_HDMV/PGS
  170. Codec IM                                 : I5QAYOL9X6A8XZ
  171. Codec ID/Info                            : Picture based subtitle format used on BDs/HD-DVDs
  172. Duration                                 : 1 h 57 min
  173. Bit rate                                 : 27.4 kb/s
  174. Count of elements                        : 2416
  175. Stream size                              : 23.1 MiB (0%)
  176. Title                                    : Spanish-PGS
  177. Language                                 : Spanish
  178. Default                                  : No
  179. Forced                                   : No

  180. Text #8
  181. ID                                       : 11
  182. Format                                   : PGS
  183. Muxing mode                              : zlib
  184. Codec IM                                 : I5QAYOL9X6A8XZ
  185. Codec ID                                 : S_HDMV/PGS
  186. Codec IM                                 : I5QAYOL9X6A8XZ
  187. Codec ID/Info                            : Picture based subtitle format used on BDs/HD-DVDs
  188. Duration                                 : 1 h 57 min
  189. Bit rate                                 : 21.8 kb/s
  190. Count of elements                        : 2214
  191. Stream size                              : 18.4 MiB (0%)
  192. Title                                    : French-PGS
  193. Language                                 : French
  194. Default                                  : No
  195. Forced                                   : No

  196. Text #9
  197. ID                                       : 12
  198. Format                                   : PGS
  199. Muxing mode                              : zlib
  200. Codec IM                                 : I5QAYOL9X6A8XZ
  201. Codec ID                                 : S_HDMV/PGS
  202. Codec IM                                 : I5QAYOL9X6A8XZ
  203. Codec ID/Info                            : Picture based subtitle format used on BDs/HD-DVDs
  204. Duration                                 : 2 h 4 min
  205. Bit rate                                 : 25.4 kb/s
  206. Count of elements                        : 2320
  207. Stream size                              : 22.7 MiB (0%)
  208. Title                                    : Italian-PGS
  209. Language                                 : Italian
  210. Default                                  : No
  211. Forced                                   : No

  212. Text #10
  213. ID                                       : 13
  214. Format                                   : PGS
  215. Muxing mode                              : zlib
  216. Codec IM                                 : I5QAYOL9X6A8XZ
  217. Codec ID                                 : S_HDMV/PGS
  218. Codec IM                                 : I5QAYOL9X6A8XZ
  219. Codec ID/Info                            : Picture based subtitle format used on BDs/HD-DVDs
  220. Duration                                 : 1 h 57 min
  221. Bit rate                                 : 18.2 kb/s
  222. Count of elements                        : 2200
  223. Stream size                              : 15.4 MiB (0%)
  224. Title                                    : Japanese-PGS
  225. Language                                 : Japanese
  226. Default                                  : No
  227. Forced                                   : No

  228. Text #11
  229. ID                                       : 14
  230. Format                                   : PGS
  231. Muxing mode                              : zlib
  232. Codec IM                                 : I5QAYOL9X6A8XZ
  233. Codec ID                                 : S_HDMV/PGS
  234. Codec IM                                 : I5QAYOL9X6A8XZ
  235. Codec ID/Info                            : Picture based subtitle format used on BDs/HD-DVDs
  236. Duration                                 : 2 h 4 min
  237. Bit rate                                 : 19.9 kb/s
  238. Count of elements                        : 2244
  239. Stream size                              : 17.8 MiB (0%)
  240. Title                                    : Dutch-PGS
  241. Language                                 : Dutch
  242. Default                                  : No
  243. Forced                                   : No

  244. Text #12
  245. ID                                       : 15
  246. Format                                   : PGS
  247. Muxing mode                              : zlib
  248. Codec IM                                 : I5QAYOL9X6A8XZ
  249. Codec ID                                 : S_HDMV/PGS
  250. Codec IM                                 : I5QAYOL9X6A8XZ
  251. Codec ID/Info                            : Picture based subtitle format used on BDs/HD-DVDs
  252. Duration                                 : 2 h 4 min
  253. Bit rate                                 : 19.4 kb/s
  254. Count of elements                        : 2340
  255. Stream size                              : 17.3 MiB (0%)
  256. Title                                    : Norwegian-PGS
  257. Language                                 : Norwegian
  258. Default                                  : No
  259. Forced                                   : No

  260. Text #13
  261. ID                                       : 16
  262. Format                                   : PGS
  263. Muxing mode                              : zlib
  264. Codec IM                                 : I5QAYOL9X6A8XZ
  265. Codec ID                                 : S_HDMV/PGS
  266. Codec IM                                 : I5QAYOL9X6A8XZ
  267. Codec ID/Info                            : Picture based subtitle format used on BDs/HD-DVDs
  268. Duration                                 : 2 h 4 min
  269. Bit rate                                 : 23.3 kb/s
  270. Count of elements                        : 2432
  271. Stream size                              : 20.8 MiB (0%)
  272. Title                                    : Portuguese-PGS
  273. Language                                 : Portuguese
  274. Default                                  : No
  275. Forced                                   : No

  276. Text #14
  277. ID                                       : 17
  278. Format                                   : PGS
  279. Muxing mode                              : zlib
  280. Codec IM                                 : I5QAYOL9X6A8XZ
  281. Codec ID                                 : S_HDMV/PGS
  282. Codec IM                                 : I5QAYOL9X6A8XZ
  283. Codec ID/Info                            : Picture based subtitle format used on BDs/HD-DVDs
  284. Duration                                 : 2 h 4 min
  285. Bit rate                                 : 23.6 kb/s
  286. Count of elements                        : 2402
  287. Stream size                              : 21.1 MiB (0%)
  288. Title                                    : Finnish-PGS
  289. Language                                 : Finnish
  290. Default                                  : No
  291. Forced                                   : No

  292. Text #15
  293. ID                                       : 18
  294. Format                                   : PGS
  295. Muxing mode                              : zlib
  296. Codec IM                                 : I5QAYOL9X6A8XZ
  297. Codec ID                                 : S_HDMV/PGS
  298. Codec IM                                 : I5QAYOL9X6A8XZ
  299. Codec ID/Info                            : Picture based subtitle format used on BDs/HD-DVDs
  300. Duration                                 : 2 h 4 min
  301. Bit rate                                 : 23.1 kb/s
  302. Count of elements                        : 2364
  303. Stream size                              : 20.7 MiB (0%)
  304. Title                                    : Swedish-PGS
  305. Language                                 : Swedish
  306. Default                                  : No
  307. Forced                                   : No

  308. Menu
  309. 00:00:00.000                             : en:Chapter 1
  310. 00:04:02.450                             : en:Chapter 2
  311. 00:12:57.860                             : en:Chapter 3
  312. 00:21:18.068                             : en:Chapter 4
  313. 00:26:32.299                             : en:Chapter 5
  314. 00:32:56.474                             : en:Chapter 6
  315. 00:39:30.493                             : en:Chapter 7
  316. 00:46:56.438                             : en:Chapter 8
  317. 00:51:44.309                             : en:Chapter 9
  318. 00:57:34.868                             : en:Chapter 10
  319. 01:02:08.975                             : en:Chapter 11
  320. 01:09:06.642                             : en:Chapter 12
  321. 01:18:19.236                             : en:Chapter 13
  322. 01:23:31.381                             : en:Chapter 14
  323. 01:27:35.083                             : en:Chapter 15
  324. 01:34:08.017                             : en:Chapter 16
  325. 01:42:43.448                             : en:Chapter 17
  326. 01:51:10.830                             : en:Chapter 18
  327. 01:57:27.832                             : en:Chapter 19
复制代码


精彩剧照

碟中谍3/不可能的任务3 Mission.Impossible.III.2006.REMASTERED.1080p.BluRay.x264.TrueHD.5.1-SWTYBLZ 17.71GB-2.png 碟中谍3/不可能的任务3 Mission.Impossible.III.2006.REMASTERED.1080p.BluRay.x264.TrueHD.5.1-SWTYBLZ 17.71GB-3.png 碟中谍3/不可能的任务3 Mission.Impossible.III.2006.REMASTERED.1080p.BluRay.x264.TrueHD.5.1-SWTYBLZ 17.71GB-4.png

4K321.com" target="_blank" class="relatedlink">蓝光高清网提示您 点击下方附件名称 马上开始下载

Mission.Impossible.III.2006.REMASTERED.1080p.BluRay.x264.TrueHD.5.1-SWTYBLZ.torrent ( 89.1 KB )



温馨提示:
本站资源优先使用迅雷下载,迅雷会员下载,速度基本可以跑满宽带
如果遇到无资源或者版权问题无法下载,推荐使用115网盘离线下载(点击查看115网盘离线下载教程


回复

使用道具 举报

全部回复1 显示全部楼层
jiahongtao 发表于 2020-1-23 13:41:36 | 显示全部楼层
没有见到啊。
回复 支持 反对

使用道具 举报

声明:您在社区发表的所有信息仅代表用户个人观点,与本网站立场无关,希望各位烧友理性发言,不发表违法国家法律禁止的话题。

您需要登录后才可以回帖 登录 | 立即注册

本版积分规则

联系客服 关注微信 下载APP 返回顶部 返回列表