开启左侧

[剧情] 614号逃犯 The.Escape.of.Prisoner.614.2018.1080p.BluRay.x264-BRMP 7.96GB

蓝鸟 发表于 2019-9-4 13:59:38 | 显示全部楼层 |阅读模式
614号逃犯 The.Escape.of.Prisoner.614.2018.1080p.BluRay.x264-BRMP 7.96GB-1.jpg
◎译  名 614号逃犯
◎片  名 The Escape of Prisoner 614
◎年  代 2018
◎产  地 美国
◎类  别 剧情/喜剧/犯罪/冒险
◎语  言 英语
◎上映日期 2018-04-27(美国)
◎IMDb评分  4.3/10 from 273 users
◎IMDb链接  https://www.imdb.com/title/tt7375578/
◎豆瓣评分 /10 from 0 users
◎豆瓣链接 https://movie.douban.com/subject/27600118/
◎片  长 97分钟
◎导  演 扎克·高登
◎主  演 朗·普尔曼 Ron Perlman
      马丁·斯塔尔 Martin Starr
      杰克·麦克道曼 Jake McDorman

◎简  介

  两名无能的小镇警长代表逮捕了一名他们认为被错误定罪的逃犯


该资源信息参数

  1. Video
  2. ID                                       : 1
  3. Format                                   : AVC
  4. Format/Info                              : Advanced Video Codec
  5. Format profile                           : High@L4.1
  6. Format settings                          : CABAC / 5 Ref Frames
  7. Format settings, CABAC                   : Yes
  8. Format settings, RefFrames               : 5 frames
  9. Codec IM                                 : I5QAYOL9X6A8XZ
  10. Codec ID                                 : V_MPEG4/ISO/AVC
  11. Duration                                 : 1 h 37 min
  12. Bit rate                                 : 10.2 Mb/s
  13. Width                                    : 1 920 pixels
  14. Height                                   : 808 pixels
  15. Display aspect ratio                     : 2.40:1
  16. Frame rate mode                          : Constant
  17. Frame rate                               : 23.976 (24000/1001) FPS
  18. Color space                              : YUV
  19. Chroma subsampling                       : 4:2:0
  20. Bit depth                                : 8 bits #32342
  21. Scan type                                : Progressive
  22. Bits/(Pixel*Frame)                       : 0.273
  23. Stream size                              : 6.92 GiB (87%)
  24. Writing library                          : x264 core 155 r2901 7d0ff22
  25. Encoding settings                        : cabac=1 / ref=5 / deblock=1:0:0 / analyse=0x3:0x133 / me=umh / subme=7 / psy=1 / psy_rd=1.00:0.00 / mixed_ref=1 / me_range=16 / chroma_me=1 / trellis=1 / 8x8dct=1 / cqm=0 / deadzone=21,11 / fast_pskip=0 / chroma_qp_offset=-2 / threads=18 / lookahead_threads=3 / sliced_threads=0 / nr=0 / decimate=1 / interlaced=0 / bluray_compat=0 / constrained_intra=0 / bframes=3 / b_pyramid=2 / b_adapt=1 / b_bias=0 / direct=1 / weightb=1 / open_gop=0 / weightp=2 / keyint=240 / keyint_min=23 / scenecut=40 / intra_refresh=0 / rc_lookahead=40 / rc=2pass / mbtree=1 / bitrate=10170 / ratetol=1.0 / qcomp=0.60 / qpmin=10 / qpmax=51 / qpstep=4 / cplxblur=20.0 / qblur=0.5 / ip_ratio=1.40 / aq=1:1.00
  26. Default                                  : Yes
  27. Forced                                   : No

  28. Audio
  29. ID                                       : 2
  30. Format                                   : DTS
  31. Format/Info                              : Digital Theater Systems
  32. Mode                                     : 16
  33. Format settings, Endianness              : Big
  34. Codec IM                                 : I5QAYOL9X6A8XZ
  35. Codec ID                                 : A_DTS
  36. Duration                                 : 1 h 37 min
  37. Bit rate mode                            : Constant
  38. Bit rate                                 : 1 509 kb/s
  39. Channel(s)                               : 6 channels
  40. Channel positions                        : Front: L C R, Side: L R, LFE
  41. Sampling rate                            : 48.0 kHz
  42. Frame rate                               : 93.750 FPS (512 SPF)
  43. Bit depth                                : 24 bits
  44. Compression mode                         : Lossy
  45. Stream size                              : 1.03 GiB (13%)
  46. Language                                 : English
  47. Default                                  : Yes
  48. Forced                                   : No
复制代码


精彩剧照

614号逃犯 The.Escape.of.Prisoner.614.2018.1080p.BluRay.x264-BRMP 7.96GB-2.jpg

4K321.com" target="_blank" class="relatedlink">蓝光高清网提示您 点击下方附件名称 马上开始下载

The.Escape.of.Prisoner.614.2018.1080p.BluRay.x264-BRMP.torrent ( 80.45 KB )



温馨提示:
本站资源优先使用迅雷下载,迅雷会员下载,速度基本可以跑满宽带
如果遇到无资源或者版权问题无法下载,推荐使用115网盘离线下载(点击查看115网盘离线下载教程


回复

使用道具 举报

全部回复0 显示全部楼层

声明:您在社区发表的所有信息仅代表用户个人观点,与本网站立场无关,希望各位烧友理性发言,不发表违法国家法律禁止的话题。

您需要登录后才可以回帖 登录 | 立即注册

本版积分规则

联系客服 关注微信 下载APP 返回顶部 返回列表