开启左侧

[犯罪] 处女泉 The.Virgin.Spring.1960.1080p.BluRay.x264-DEPTH 8.74GB

蓝鸟 发表于 2019-9-4 13:57:59 | 显示全部楼层 |阅读模式
处女泉 The.Virgin.Spring.1960.1080p.BluRay.x264-DEPTH 8.74GB-1.jpg
◎译  名 处女泉
◎片  名 Jungfruk?llan
◎年  代 1960
◎产  地 瑞典
◎类  别 犯罪/剧情
◎语  言 瑞典语/德语
◎上映日期 1960-02-08(瑞典)
◎IMDb评分  8.1/10 from 21,899 users
◎IMDb链接  https://www.imdb.com/title/tt0053976/
◎豆瓣评分 8.4/10 from 11,878 users
◎豆瓣链接 https://movie.douban.com/subject/1293156/
◎片  长 89 分钟
◎导  演 英格玛·伯格曼 Ingmar Bergman
◎主  演 马克斯·冯·叙多夫 Max von Sydow
      贝吉塔·瓦尔堡 Birgitta Valberg
      古内尔·林德布洛姆 Gunnel Lindblom
      贝吉塔·彼得松 Birgitta Pettersson

◎简  介

  早上,虔诚的农场主陶尔(Max von Sydow 饰)夫妻做过了祷告,随后安排女儿卡琳骑马为教堂送一些蜡烛,卡琳穿上了新制的盛装,邀请家里的养女英格丽同行。有孕在身的英格丽性格放纵,并一直嫉妒卡琳的明媚人生,出行前,英格丽在食物中塞进了一只蛤蟆。行至一片森林前,英格丽让卡琳独自上路而自己尾随观察。林中的三个牧羊人看到孤身一人的卡琳顿起歹意,他们奸污后又打死了卡琳,掳走她的外套。傍晚,三名牧羊人投宿陶尔家中,向陶尔妻子兜售卡琳的衣物,惊慌的英格丽亦同时回到家中,她向陶尔忏悔了自己诅咒卡琳的罪行。陶尔沐浴更衣,以白桦树枝抽打自己后,决意用很双手为女儿报仇……
  本片获1961年奥斯卡最佳外语片奖,1960年戛纳电影节特别推荐奖。

◎获奖情况

  第33届奥斯卡金像奖  (1961)
  最佳外语片
  黑白片最佳服装设计(提名) Marik Vos-Lundh

  第13届戛纳电影节  (1960)
  主竞赛单元 金棕榈奖(提名) 英格玛·伯格曼


该资源信息参数

  1. Video
  2. ID                                       : 1
  3. Format                                   : AVC
  4. Format/Info                              : Advanced Video Codec
  5. Format profile                           : High@L4.1
  6. Format settings                          : CABAC / 5 Ref Frames
  7. Format settings, CABAC                   : Yes
  8. Format settings, RefFrames               : 5 frames
  9. Codec IM                                 : I5QAYOL9X6A8XZ
  10. Codec ID                                 : V_MPEG4/ISO/AVC
  11. Duration                                 : 1 h 30 min
  12. Bit rate                                 : 13.0 Mb/s
  13. Width                                    : 1 440 pixels
  14. Height                                   : 1 080 pixels
  15. Display aspect ratio                     : 4:3
  16. Frame rate mode                          : Constant
  17. Frame rate                               : 23.976 (24000/1001) FPS
  18. Color space                              : YUV
  19. Chroma subsampling                       : 4:2:0
  20. Bit depth                                : 8 bits #32342
  21. Scan type                                : Progressive
  22. Bits/(Pixel*Frame)                       : 0.349
  23. Stream size                              : 8.23 GiB (94%)
  24. Writing library                          : x264 core 155 r2901 7d0ff22
  25. Encoding settings                        : cabac=1 / ref=5 / deblock=1:-3:-3 / analyse=0x3:0x133 / me=umh / subme=10 / psy=1 / psy_rd=1.00:0.15 / mixed_ref=1 / me_range=24 / chroma_me=1 / trellis=2 / 8x8dct=1 / cqm=0 / deadzone=21,11 / fast_pskip=1 / chroma_qp_offset=-3 / threads=34 / lookahead_threads=5 / sliced_threads=0 / nr=0 / decimate=1 / interlaced=0 / bluray_compat=0 / constrained_intra=0 / bframes=8 / b_pyramid=2 / b_adapt=2 / b_bias=0 / direct=3 / weightb=1 / open_gop=0 / weightp=2 / keyint=240 / keyint_min=24 / scenecut=40 / intra_refresh=0 / rc_lookahead=60 / rc=2pass / mbtree=1 / bitrate=13003 / ratetol=1.0 / qcomp=0.60 / qpmin=0 / qpmax=69 / qpstep=4 / cplxblur=20.0 / qblur=0.5 / ip_ratio=1.40 / aq=1:0.80
  26. Default                                  : Yes
  27. Forced                                   : No

  28. Audio #1
  29. ID                                       : 2
  30. Format                                   : FLAC
  31. Format/Info                              : Free Lossless Audio Codec
  32. Codec IM                                 : I5QAYOL9X6A8XZ
  33. Codec ID                                 : A_FLAC
  34. Duration                                 : 1 h 30 min
  35. Bit rate mode                            : Variable
  36. Bit rate                                 : 603 kb/s
  37. Channel(s)                               : 1 channel
  38. Channel positions                        : Front: C
  39. Sampling rate                            : 48.0 kHz
  40. Frame rate                               : 11.719 FPS (4096 SPF)
  41. Bit depth                                : 24 bits
  42. Stream size                              : 391 MiB (4%)
  43. Writing library                          : libFLAC 1.2.1 (UTC 2007-09-17)
  44. Language                                 : Swedish
  45. Default                                  : Yes
  46. Forced                                   : No

  47. Audio #2
  48. ID                                       : 3
  49. Format                                   : AC-3
  50. Format/Info                              : Audio Coding 3
  51. Format settings, Endianness              : Big
  52. Codec IM                                 : I5QAYOL9X6A8XZ
  53. Codec ID                                 : A_AC3
  54. Duration                                 : 1 h 30 min
  55. Bit rate mode                            : Constant
  56. Bit rate                                 : 192 kb/s
  57. Channel(s)                               : 1 channel
  58. Channel positions                        : Front: C
  59. Sampling rate                            : 48.0 kHz
  60. Frame rate                               : 31.250 FPS (1536 SPF)
  61. Bit depth                                : 16 bits
  62. Compression mode                         : Lossy
  63. Stream size                              : 124 MiB (1%)
  64. Language                                 : English
  65. Service kind                             : Complete Main
  66. Default                                  : No
  67. Forced                                   : No

  68. Text
  69. ID                                       : 4
  70. Format                                   : UTF-8
  71. Codec IM                                 : I5QAYOL9X6A8XZ
  72. Codec ID                                 : S_TEXT/UTF8
  73. Codec IM                                 : I5QAYOL9X6A8XZ
  74. Codec ID/Info                            : UTF-8 Plain Text
  75. Duration                                 : 1 h 28 min
  76. Bit rate                                 : 26 b/s
  77. Count of elements                        : 493
  78. Stream size                              : 17.1 KiB (0%)
  79. Language                                 : English
  80. Default                                  : Yes
  81. Forced                                   : No

  82. Menu
  83. 00:00:00.000                             : en:00:00:00.000
  84. 00:03:57.028                             : en:00:03:57.028
  85. 00:09:45.168                             : en:00:09:45.168
  86. 00:11:43.786                             : en:00:11:43.786
  87. 00:18:10.298                             : en:00:18:10.298
  88. 00:22:42.736                             : en:00:22:42.736
  89. 00:26:49.024                             : en:00:26:49.024
  90. 00:31:06.448                             : en:00:31:06.448
  91. 00:34:37.242                             : en:00:34:37.242
  92. 00:36:50.792                             : en:00:36:50.792
  93. 00:43:52.922                             : en:00:43:52.922
  94. 00:45:37.735                             : en:00:45:37.735
  95. 00:53:36.380                             : en:00:53:36.380
  96. 00:58:07.984                             : en:00:58:07.984
  97. 01:03:17.544                             : en:01:03:17.544
  98. 01:08:08.501                             : en:01:08:08.501
  99. 01:12:01.943                             : en:01:12:01.943
  100. 01:21:16.663                             : en:01:21:16.663
  101. 01:24:38.448                             : en:01:24:38.448
  102. 01:27:17.107                             : en:01:27:17.107
复制代码


精彩剧照

处女泉 The.Virgin.Spring.1960.1080p.BluRay.x264-DEPTH 8.74GB-2.jpg

  


4K321.com" target="_blank" class="relatedlink">蓝光高清网提示您 点击下方附件名称 马上开始下载

The.Virgin.Spring.1960.1080p.BluRay.x264-DEPTH.torrent ( 88.17 KB )



温馨提示:
本站资源优先使用迅雷下载,迅雷会员下载,速度基本可以跑满宽带
如果遇到无资源或者版权问题无法下载,推荐使用115网盘离线下载(点击查看115网盘离线下载教程


回复

使用道具 举报

全部回复0 显示全部楼层

声明:您在社区发表的所有信息仅代表用户个人观点,与本网站立场无关,希望各位烧友理性发言,不发表违法国家法律禁止的话题。

您需要登录后才可以回帖 登录 | 立即注册

本版积分规则

联系客服 关注微信 下载APP 返回顶部 返回列表