开启左侧

天际行者[DIY蓝光原盘/英/简繁字幕]Vremya.pervykh.2017.BluRay.1080p.AVC.DTS-HD.MA5.1-ST@CHDBits

 
蓝鸟 发表于 2018-12-28 18:26:15 | 显示全部楼层 |阅读模式
天际行者 豆瓣评分: 7.4分
片长:140分钟分钟 (2017年上映)
类型:剧情 历史 冒险 
导演:德米特里·基什勒夫
主演:叶甫盖尼·米罗诺夫 康斯坦丁·哈宾斯基 弗拉基米尔·伊利因
字幕: 俄语 

封装音轨: 




原盘:来自本站,德版原盘俄文,无后缀
字幕:首杀字幕组
测试:DVDFab Media Player 5测试通过

◎译  名 天际行者/太空第一步
◎片  名 Время первых
◎年  代 2017
◎产  地 俄罗斯
◎类  别 剧情/历史/冒险
◎语  言 俄语
◎上映日期 2017-04-06(俄罗斯)/2018(中国大陆)
◎IMDb评分  7.4/10 from 3,116 users
◎IMDb链接  https://www.imdb.com/title/tt6673840/
◎豆瓣评分 7.8/10 from 3,099 users
◎豆瓣链接 https://movie.douban.com/subject/26654145/
◎片  长 140分钟
◎导  演 德米特里·基什勒夫 Dmitriy Kiselev
◎主  演 叶甫盖尼·米罗诺夫 Yevgeny Mironov
      康斯坦丁·哈宾斯基 Konstantin Khabenskiy
      弗拉基米尔·伊利因 Vladimir Ilin
      亚历山德拉·乌尔苏利亚科 Aleksandra Ursulyak
      叶莲娜·维克托罗夫娜·帕诺娃 Elena Panova
      尤里·伊茨科夫 Yuriy Itskov
      艾戈·莫罗佐夫 Egor Morozov
      亚历山大·伊林 Aleksandr Ilin
      维塔丽雅·科尔尼扬科 Vitaliya Kornienko
      阿纳托利·科特尼欧夫 Anatoliy Kotenyov

◎简  介

  1965年,正值美国和俄罗斯先后准备向太空发射载人飞船之际,指挥官谢尔盖·科罗廖夫决定选派飞行员阿列克谢•列昂诺夫和帕维尔·贝尔耶夫执行首飞任务,提前于原计划两年执行。于此过程中,无论是两名宇航员还是指挥官和无数参与者,都面临着极大的压力和风险。
  万众瞩目之下,媒体同步播出了发射过程,当阿列克谢打开舱门迈出太空第一步之际,整个苏联都为之沸腾。然而在阿列克谢准备返回的时候太空服失灵,紧接着飞船舱门无法自动关闭……让他险些命丧太空…….

  • DISC INFO:
  • Disc Title:     Vremya.pervykh.2017.BluRay.1080p.AVC.DTS-HD.MA5.1-ST@CHDBits
  • Disc Size:      46,964,370,751 bytes
  • Protection:     AACS
  • Extras:         50Hz Content
  • BDInfo:         0.7.3.65534
  • PLAYLIST REPORT:
  • Name:                   00021.MPLS
  • Length:                 2:17:17.145 (h:m:s.ms)
  • Size:                   38,892,496,896 bytes
  • Total Bitrate:          37.77 Mbps
  • VIDEO:
  • Codec                   Bitrate             Description
  • -----                   -------             -----------
  • MPEG-4 AVC Video        27954 kbps          1080p / 23.976 fps / 16:9 / High Profile 4.1
  • AUDIO:
  • Codec                           Language        Bitrate         Description
  • -----                           --------        -------         -----------
  • DTS-HD Master Audio             German          3811 kbps       5.1 / 48 kHz / 3811 kbps / 24-bit (DTS Core: 5.1 / 48 kHz / 1509 kbps / 24-bit)
  • DTS-HD Master Audio             Russian         3757 kbps       5.1 / 48 kHz / 3757 kbps / 24-bit (DTS Core: 5.1 / 48 kHz / 1509 kbps / 24-bit)
  • SUBTITLES:
  • Codec                           Language        Bitrate         Description
  • -----                           --------        -------         -----------
  • Presentation Graphics           German          29.162 kbps
  • Presentation Graphics           German          0.347 kbps
  • Presentation Graphics           English         21.617 kbps
  • Presentation Graphics           Chinese         20.606 kbps    框内
  • Presentation Graphics           Chinese         22.860 kbps    框内
  • Presentation Graphics           Chinese         20.606 kbps    框外
  • Presentation Graphics           Chinese         22.860 kbps    框外
  • FILES:
  • Name            Time In         Length          Size            Total Bitrate
  • ----            -------         ------          ----            -------------
  • 00021.M2TS      0:00:00.000     2:16:57.125     38,859,079,680  37,832
  • 00028.M2TS      2:16:57.125     0:00:10.010     14,843,904      11,863
  • 00029.M2TS      2:17:07.135     0:00:10.010     18,573,312      14,844



天际行者.Vremya.pervykh.2017.BluRay.1080p.AVC.DTS-HD.MA5.1-ST@CHDBits.torrent ( 219.9 KB )






192740kon47x2qc0an2q9n.jpg
回复

使用道具 举报

全部回复0 显示全部楼层

声明:您在社区发表的所有信息仅代表用户个人观点,与本网站立场无关,希望各位烧友理性发言,不发表违法国家法律禁止的话题。

您需要登录后才可以回帖 登录 | 立即注册

本版积分规则

联系客服 关注微信 下载APP 返回顶部 返回列表