开启左侧

[剧情] 盒装美人 / 情碎海伦娜 [中字].Boxing.Helena.1993.1080P.H264.AC3-TAG 25.2GB

蓝鸟 发表于 2024-5-23 10:07:54 | 显示全部楼层 |阅读模式

盒装美人 / 情碎海伦娜 [中字].Boxing.Helena.1993.1080P.H264.AC3-TAG 25.2GB

盒装美人 / 情碎海伦娜 [中字].Boxing.Helena.1993.1080P.H264.AC3-TAG 25.2GB



译  名 盒装美人 / 情碎海伦娜
片  名 Boxing Helena
年  代 1993
产  地 美国
类  别 剧情 / 爱情 / 悬疑 / 惊悚
语  言 英语
上映日期 1993-01(美国圣丹斯电影节)
IMDb评分  4.8/10 from 11523 users
豆瓣评分 6.2/10 from 2864 users
片  长 107 分钟
导  演 詹妮弗·林奇 Jennifer Chambers Lynch
编  剧 Philippe Caland / 詹妮弗·林奇 Jennifer Chambers Lynch
主  演 朱利安·山德斯 Julian Sands
       雪琳·芬 Sherilyn Fenn
       比尔·帕克斯顿 Bill Paxton
       柯特伍德·史密斯 Kurtwood Smith
       阿特·加芬克尔 Art Garfunkel
       Betsy Clark
       尼古丽特·斯科塞斯 Nicolette Scorsese
       Carl Mazzocone Sr.
       Lisa Oz
       特德·曼森 Ted Manson
       Matt Berry


标  签 美国 | 情色 | 惊悚 | 盒装美人 | 美国电影 | 人性 | 1993 | 剧情

简  介

在外科医院院长尼克(朱利安·山德斯 Julian Sands 饰)的眼中,风情万种的海伦娜(雪琳·芬 Sherilyn Fenn 饰)是自己的缪斯,可是对于这个追求者,海伦娜并没有放在心上。为了将海伦娜留在身边,尼克设计让她错过了航班,没想到聪明的海伦娜察觉了尼克的阴谋,却在逃跑的途中发生了车祸。从昏迷中醒来的海伦娜发现自己失去双腿,而站在自己面前的,正是罪魁祸首尼克,尼克向海伦娜解释截肢是为了保住她的性命,而海伦娜并不相信。就这样,两人扭曲的关系开始了。在一次企图用手掐死尼克的行动后,海伦娜失去了她的双臂,至此她彻底沦为了一个丧失一切行动能力的摆设,生活起居皆由尼克照料。



影片参数
  1. General
  2. Unique ID : 61954777620605210693211055183550460678 (0x2E9C0E5F4E0ED41F8AD6195E997BB306)
  3. Complete name : \\Boxing Helena 1993 1080P H264 AC3\Boxing Helena 1993 1080P H264 AC3.mkv
  4. Format : Matroska
  5. Format version : Version 4
  6. File size : 25.2 GiB
  7. Duration : 1 h 45 min
  8. Overall bit rate : 34.2 Mb/s
  9. Encoded date : UTC 2021-03-10 05:18:28
  10. Writing application : mkvmerge v53.0.0 (''Fool''s Gold'') 64-bit
  11. Writing library : libebml v1.4.1 + libmatroska v1.6.2

  12. Video
  13. ID : 1
  14. Format : AVC
  15. Format/Info : Advanced Video Codec
  16. Format profile : Baseline@L4
  17. Format settings : 1 Ref Frames
  18. Format settings, CABAC : No
  19. Format settings, Reference fra : 1 frame
  20. Format settings, GOP : M=1, N=12
  21. Codec ID : V_MPEG4/ISO/AVC
  22. Duration : 1 h 45 min
  23. Bit rate : 34.0 Mb/s
  24. Width : 1 920 pixels
  25. Height : 1 080 pixels
  26. Display aspect ratio : 16:9
  27. Frame rate mode : Constant
  28. Frame rate : 29.970 (30000/1001) FPS
  29. Color space : YUV
  30. Chroma subsampling : 4:2:0
  31. Bit depth : 8 bits
  32. Scan type : Progressive
  33. Bits/(Pixel*Frame) : 0.548
  34. Stream size : 25.1 GiB (99%)
  35. Writing library : x264 core 157 r2970 5493be8
  36. Encoding settings : cabac=0 / ref=1 / deblock=0:0:0 / analyse=0:0 / me=dia / subme=0 / psy=1 / psy_rd=1.00:0.00 / mixed_ref=0 / me_range=16 / chroma_me=1 / trellis=0 / 8x8dct=0 / cqm=0 / deadzone=21,11 / fast_pskip=1 / chroma_qp_offset=0 / threads=8 / lookahead_threads=1 / sliced_threads=0 / nr=0 / decimate=1 / interlaced=0 / bluray_compat=0 / constrained_intra=0 / bframes=0 / weightp=0 / keyint=12 / keyint_min=1 / scenecut=0 / intra_refresh=0 / rc=crf / mbtree=0 / crf=17.0 / qcomp=0.60 / qpmin=0 / qpmax=69 / qpstep=4 / ip_ratio=1.40 / aq=0
  37. Default : Yes
  38. Forced : No

  39. Audio
  40. ID : 2
  41. Format : AC-3
  42. Format/Info : Audio Coding 3
  43. Commercial name : Dolby Digital
  44. Format settings : Dolby Surround
  45. Codec ID : A_AC3
  46. Duration : 1 h 45 min
  47. Bit rate mode : Constant
  48. Bit rate : 192 kb/s
  49. Channel(s) : 2 channels
  50. Channel layout : L R
  51. Sampling rate : 48.0 kHz
  52. Frame rate : 31.250 FPS (1536 SPF)
  53. Compression mode : Lossy
  54. Stream size : 145 MiB (1%)
  55. Language : English
  56. Service kind : Complete Main
  57. Default : Yes
  58. Forced : No

  59. Text #1
  60. ID : 3
  61. Format : UTF-8
  62. Codec ID : S_TEXT/UTF8
  63. Codec ID/Info : UTF-8 Plain Text
  64. Duration : 1 h 44 min
  65. Bit rate : 37 b/s
  66. Count of elements : 1193
  67. Stream size : 29.0 KiB (0%)
  68. Language : English
  69. Default : No
  70. Forced : No

  71. Text #2
  72. ID : 4
  73. Format : ASS
  74. Codec ID : S_TEXT/ASS
  75. Codec ID/Info : Advanced Sub Station Alpha
  76. Duration : 1 h 40 min
  77. Bit rate : 39 b/s
  78. Count of elements : 657
  79. Compression mode : Lossless
  80. Stream size : 28.9 KiB (0%)
  81. Language : Chinese
  82. Default : Yes
  83. Forced : No

  84. Menu
  85. 00:00:00.066 : en:Chapter 01
  86. 00:03:54.033 : en:Chapter 02
  87. 00:09:41.581 : en:Chapter 03
  88. 00:21:56.448 : en:Chapter 04
  89. 00:25:19.067 : en:Chapter 05
  90. 00:32:07.558 : en:Chapter 06
  91. 00:36:25.733 : en:Chapter 07
  92. 00:42:31.382 : en:Chapter 08
  93. 00:49:22.893 : en:Chapter 09
  94. 00:58:35.812 : en:Chapter 10
  95. 01:08:45.271 : en:Chapter 11
  96. 01:13:17.760 : en:Chapter 12
  97. 01:22:45.827 : en:Chapter 13
  98. 01:27:57.555 : en:Chapter 14
  99. 01:35:46.023 : en:Chapter 15
  100. 01:41:33.637 : en:Chapter 16
  101. 01:45:07.117 : en:Chapter 17
复制代码

盒装美人 / 情碎海伦娜 [中字].Boxing.Helena.1993.1080P.H264.AC3-TAG 25.2GB

盒装美人 / 情碎海伦娜 [中字].Boxing.Helena.1993.1080P.H264.AC3-TAG 25.2GB

盒装美人 / 情碎海伦娜 [中字].Boxing.Helena.1993.1080P.H264.AC3-TAG 25.2GB

盒装美人 / 情碎海伦娜 [中字].Boxing.Helena.1993.1080P.H264.AC3-TAG 25.2GB






新种推荐请使用qBittorrent,utorrent,transmission等标准BT软件下载!以获取最快速度。请大家下载完成后不要关闭下载软件 贡献出自己的上传带宽 人人为我 我为人人!










4K321】提示您 点击下方附件即可下载

盒装美人 / 情碎海伦娜 [中字].Boxing.Helena.1993.1080P.H264.AC3-TAG 25.2GB

盒装美人.Boxing.Helena.1993.1080P.H264.AC3-TAG.torrent ( 127.14 KB )

回复

使用道具 举报

全部回复24 显示全部楼层
876612153 发表于 2024-5-23 10:36:48 | 显示全部楼层
签到 回帖得高清币  哈哈哈
回复 支持 反对

使用道具 举报

123zhang 发表于 2024-5-24 10:55:51 | 显示全部楼层
我也来看看
回复 支持 反对

使用道具 举报

时光℡淡忘 发表于 2024-5-25 11:44:05 | 显示全部楼层
回帖得积分 谢谢分享
回复 支持 反对

使用道具 举报

djachun 发表于 2024-5-26 11:46:35 | 显示全部楼层
66666666谢谢分享!!!!
回复 支持 反对

使用道具 举报

明仔 发表于 2024-5-27 12:11:25 | 显示全部楼层
谢谢分享
回复 支持 反对

使用道具 举报

asubolip 发表于 2024-5-28 12:16:48 | 显示全部楼层
谢谢分享
回复 支持 反对

使用道具 举报

Campfireremix 发表于 2024-5-29 12:20:04 | 显示全部楼层
谢谢分享
回复 支持 反对

使用道具 举报

东波 发表于 2024-5-30 13:20:20 | 显示全部楼层
谢谢分享
回复 支持 反对

使用道具 举报

李浩 发表于 2024-5-31 13:41:33 | 显示全部楼层
下载看看
回复 支持 反对

使用道具 举报

声明:您在社区发表的所有信息仅代表用户个人观点,与本网站立场无关,希望各位烧友理性发言,不发表违法国家法律禁止的话题。

您需要登录后才可以回帖 登录 | 立即注册

本版积分规则

联系客服 关注微信 下载APP 返回顶部 返回列表