开启左侧

[剧情] 信条.Tenet.2020.IMAX.Blu-Ray.1080P.10bit.x265.DTS-HD.MA.5.1-BNL 12.10GB

蓝鸟 发表于 2023-7-30 21:19:34 | 显示全部楼层 |阅读模式

信条.Tenet.2020.IMAX.Blu-Ray.1080P.10bit.x265.DTS-HD.MA.5.1-BNL 12.10GB

信条.Tenet.2020.IMAX.Blu-Ray.1080P.10bit.x265.DTS-HD.MA.5.1-BNL 12.10GB


译  名 信条 / TENET天能(港/台) / 时空追捕 / TENƎ⊥ / Tempus / 天呐天(豆友译名)
片  名 Tenet
年  代 2020
产  地 美国 / 英国
类  别 剧情 / 动作 / 科幻
语  言 英语 / 俄语 / 乌克兰语 / 爱沙尼亚语 / 印地语 / 挪威语
上映日期 2020-08-26(英国) / 2020-09-03(美国) / 2020-09-04(中国大陆)
IMDb评星  ★★★★★★★✦☆☆
IMDb评分  7.3/10 from 543,101 users
豆瓣评星 ★★★★☆
豆瓣评分 7.6/10 from 715,354 users
片  长 150分钟
导  演 克里斯托弗·诺兰 / Christopher Nolan
演  员 约翰·大卫·华盛顿 / John David Washington | 饰 男主 The Protagonist
      罗伯特·帕丁森 / Robert Pattinson | 饰 尼尔 Neil
      伊丽莎白·德比茨基 / Elizabeth Debicki | 饰 凯特 Kat
      肯尼思·布拉纳 / Kenneth Branagh | 饰 安德烈·赛特 Andrei Sator
      亚伦·泰勒-约翰逊 / Aaron Taylor-Johnson | 饰 Ives
      迪宝·卡帕蒂娅 / Dimple Kapadia | 饰 Priya
      克蕾曼丝·波西 / Clémence Poésy | 饰 劳拉 Laura
      希米什·帕特尔 / Himesh Patel | 饰 马希尔 Mahir
      安德鲁·霍华德 / Andrew Howard | 饰 史蒂芬 Stephen
      尤里·科洛科利尼科夫 / Yuri Kolokolnikov | 饰 昆顿 Quinton
      迈克尔·凯恩 / Michael Caine | 饰 迈克尔公爵 Michael Crosby
      马丁·唐文 / Martin Donovan | 饰 Victor
      卡里娜·韦尔瓦 / Carina Velva | 饰 Tourist in Oslo
      乔纳森·坎普 / Jonathan Camp | 饰 Archibald
      凯蒂·麦克凯布 / Katie McCabe | 饰 Flight Attendant Anne
      贝恩·科拉科 / Bern Collaço | 饰 Posh Restaurant Customer
      安东尼·莫利纳利 / Anthony Molinari | 饰 Rohan
      特伦特·布克斯顿 / Trent Buxton | 饰 Soldier
      英格丽·玛格斯 / Ingrid Margus | 饰 Usher
      瑞奇·切劳洛 / Rich Ceraulo | 饰 Timmy
      劳里·谢泼德 / Laurie Shepherd | 饰 Max
      马克·克雷尼克 / Mark Krenik | 饰 Actor
      亚历克斯·威克索 / Alex Wexo | 饰 Veteran
      丹兹尔·史密斯 / Denzil Smith | 饰 Liam
      马塞尔·萨巴特 / Marcel Sabat | 饰 Gaunt Russian
      杰里米·西奥伯德 / Jeremy Theobald | 饰 Steward
      菲奥娜·道里夫 / Fiona Dourif | 饰 Wheeler
      约翰·威斯利·查特曼 / John Wesley Chatham | 饰 Sammy
      杰克·卡特莫尔-斯科特 / Jack Cutmore-Scott | 饰 Klaus
      杰佛逊·豪尔 / Jefferson Hall | 饰 Actor
      凯莱布·斯比尔亚兹 / Caleb Spillyards | 饰 Blue Soldier
      肖恩·艾弗里 / Sean Avery | 饰 Red Soldier 1
      吉米·斯达 / Jimmy Star | 饰 Pedestrian
      卡德罗莎·奥娜·卡罗尔 / Kadrolsha Ona Carole
编  剧 克里斯托弗·诺兰 / Christopher Nolan
制  片  人 托马斯·海斯利普 / Thomas Hayslip
      艾玛·托马斯 / Emma Thomas
      克里斯托弗·诺兰 / Christopher Nolan
音  乐 路德维格·戈兰松 / Ludwig Göransson
摄  影 霍伊特·范·霍特玛 / Hoyte Van Hoytema
剪  辑 詹妮弗·拉梅 / Jennifer Lame
选  角 约翰·帕帕席德拉 / John Papsidera
美  术 内森·克劳利 / Nathan Crowley
      托比·布里顿 / Toby Britton
      埃格特·克蒂尔森 / Eggert Ketilsson
      海伦娜·福尔摩斯 / Helena Holmes
      伊曼纽尔·德利斯 / Emmanuel Delis
      罗里·布鲁恩 / Rory Bruen
服  装 杰弗里·库兰 / Jeffrey Kurland
化  妆 毛里齐奥·纳迪 / Maurizio Nardi
副  导  演 乌迪安·贝加尔 / Udayan Baijal
      王晓巍
音  效 埃兰·霍夫曼 / Eilam Hoffman
动作特技 詹姆斯·阿姆斯特朗
      杰克逊·斯皮德尔 / Jackson Spidell

简  介

世界存亡危在旦夕,“信条”一词是唯一的线索与武器。主人公穿梭于全球各地,开展特工活动,力求揭示“信条”之谜,并完成一项超越了真实时间的神秘任务。这项任务并非时间之旅,而是【时空逆转】。
获奖情况 
  第78届金球奖 (2021)
  电影类 最佳原创配乐(提名)
  第74届英国电影学院奖 (2021)
  电影奖 最佳特殊视觉效果
  第44届日本电影学院奖 (2021)
  最佳外语片(提名)
  第25届美国艺术指导工会奖 (2021)
  电影奖 最佳幻想电影艺术指导(提名) 内森·克劳利
  第19届美国视觉效果协会奖 (2021)
  最佳特效电影视觉效果(提名)
  第68届美国音效剪辑协会奖 (2021)
  金卷轴奖 最佳电影音效剪辑(提名)
  金卷轴奖 最佳配乐剪辑
  第26届美国评论家选择电影奖 (2021)
  最佳摄影(提名) 霍伊特·范·霍特玛
  最佳剪辑(提名) 詹妮弗·拉梅
  最佳配乐(提名) 路德维格·戈兰松
  最佳美术指导(提名) 内森·克劳利,凯茜·卢卡斯
  最佳视觉效果
  第25届金卫星奖 (2021)
  电影部门 最佳剧情片(提名)
  电影部门 最佳原创配乐(提名) 路德维格·戈兰松
  电影部门 最佳摄影(提名) 霍伊特·范·霍特玛
  电影部门 最佳视觉效果(提名)
  电影部门 最佳音效(提名)
  第41届伦敦影评人协会奖 (2021)
  技术成就奖(提名) 詹妮弗·拉梅
  第33届芝加哥影评人协会奖 (2020)
  最佳剪辑(提名) 詹妮弗·拉梅
  最佳原创配乐(提名) 路德维格·戈兰松
  最佳视觉效果(提名)
  第24届美国在线影评人协会奖 (2021)
  最佳剪辑(提名) 詹妮弗·拉梅
  最佳原创配乐(提名) 路德维格·戈兰松
  最佳摄影(提名) 霍伊特·范·霍特玛

影片参数
  1. Video
  2. ID                          : 1
  3. Format                      : HEVC
  4. Format/Info                 : High Efficiency Video Coding
  5. Format profile              : Main [email protected]@Main
  6. Codec ID                    : V_MPEGH/ISO/HEVC
  7. Duration                    : 2 h 30 min
  8. Bit rate                    : 7 435 kb/s
  9. Width                       : 1 920 pixels
  10. Height                      : 1 080 pixels
  11. Display aspect ratio        : 16:9
  12. Frame rate mode             : Constant
  13. Frame rate                  : 23.976 (24000/1001) FPS
  14. Color space                 : YUV
  15. Chroma subsampling          : 4:2:0
  16. Bit depth                   : 10 bits
  17. Bits/(Pixel*Frame)          : 0.150
  18. Stream size                 : 7.80 GiB (64%)
  19. Writing library             : x265 3.5+104+15-ba4e7a2cb:[Windows][MSVC 1936][64 bit] 10bit
  20. Encoding settings           : cpuid=1111039 / frame-threads=3 / numa-pools=12 / wpp / no-pmode / no-pme / no-psnr / no-ssim / log-level=2 / input-csp=1 / input-res=1920x1080 / interlace=0 / total-frames=12602 / level-idc=50 / high-tier=0 / uhd-bd=0 / ref=6 / no-allow-non-conformance / no-repeat-headers / annexb / no-aud / no-eob / no-eos / no-hrd / info / hash=0 / temporal-layers=0 / open-gop / min-keyint=23 / keyint=250 / gop-lookahead=0 / bframes=16 / b-adapt=2 / b-pyramid / bframe-bias=0 / rc-lookahead=60 / lookahead-slices=4 / scenecut=40 / no-hist-scenecut / radl=0 / no-splice / no-intra-refresh / ctu=64 / min-cu-size=8 / rect / no-amp / max-tu-size=32 / tu-inter-depth=1 / tu-intra-depth=1 / limit-tu=0 / rdoq-level=2 / dynamic-rd=0.00 / no-ssim-rd / signhide / no-tskip / nr-intra=0 / nr-inter=0 / no-constrained-intra / no-strong-intra-smoothing / max-merge=4 / limit-refs=3 / limit-modes / me=2 / subme=7 / merange=57 / temporal-mvp / no-frame-dup / no-hme / weightp / weightb / no-analyze-src-pics / deblock=-1:-1 / no-sao / no-sao-non-deblock / rd=5 / selective-sao=0 / no-early-skip / rskip / no-fast-intra / no-tskip-fast / no-cu-lossless / no-b-intra / no-splitrd-skip / rdpenalty=0 / psy-rd=2.00 / psy-rdoq=1.00 / no-rd-refine / no-lossless / cbqpoffs=0 / crqpoffs=0 / rc=crf / crf=15.0 / qcomp=0.60 / qpstep=4 / stats-write=0 / stats-read=0 / vbv-maxrate=25000 / vbv-bufsize=25000 / vbv-init=0.9 / min-vbv-fullness=50.0 / max-vbv-fullness=80.0 / crf-max=0.0 / crf-min=0.0 / ipratio=1.40 / pbratio=1.30 / aq-mode=5 / aq-strength=0.60 / aq-bias-strength=1.00 / cutree / zone-count=0 / no-strict-cbr / qg-size=32 / no-rc-grain / qpmax=69 / qpmin=0 / no-const-vbv / sar=0 / overscan=0 / videoformat=5 / range=0 / colorprim=2 / transfer=2 / colormatrix=2 / chromaloc=0 / display-window=0 / cll=0,0 / min-luma=0 / max-luma=1023 / log2-max-poc-lsb=8 / vui-timing-info / vui-hrd-info / slices=1 / no-opt-qp-pps / no-opt-ref-list-length-pps / no-multi-pass-opt-rps / scenecut-bias=0.05 / no-opt-cu-delta-qp / no-aq-motion / no-hdr10 / no-hdr10-opt / no-dhdr10-opt / no-idr-recovery-sei / analysis-reuse-level=0 / analysis-save-reuse-level=0 / analysis-load-reuse-level=0 / scale-factor=0 / refine-intra=0 / refine-inter=0 / refine-mv=1 / refine-ctu-distortion=0 / no-limit-sao / ctu-info=0 / no-lowpass-dct / refine-analysis-type=0 / copy-pic=1 / max-ausize-factor=1.0 / no-dynamic-refine / no-single-sei / no-hevc-aq / no-svt / no-field / qp-adaptation-range=1.00 / scenecut-aware-qp=0conformance-window-offsets / right=0 / bottom=0 / decoder-max-rate=0 / no-vbv-live-multi-pass / no-mcstf / no-sbrc
  21. Default                     : Yes
  22. Forced                      : No
  23. Audio
  24. ID                          : 2
  25. Format                      : DTS XLL
  26. Format/Info                 : Digital Theater Systems
  27. Commercial name             : DTS-HD Master Audio
  28. Codec ID                    : A_DTS
  29. Duration                    : 2 h 30 min
  30. Bit rate mode               : Variable
  31. Bit rate                    : 4 036 kb/s
  32. Channel(s)                  : 6 channels
  33. Channel layout              : C L R Ls Rs LFE
  34. Sampling rate               : 48.0 kHz
  35. Frame rate                  : 93.750 FPS (512 SPF)
  36. Bit depth                   : 24 bits
  37. Compression mode            : Lossless
  38. Stream size                 : 4.23 GiB (35%)
  39. Language                    : English
  40. Default                     : Yes
  41. Forced                      : No
  42. Text #1
  43. ID                          : 3
  44. Format                      : PGS
  45. Muxing mode                 : zlib
  46. Codec ID                    : S_HDMV/PGS
  47. Codec ID/Info               : Picture based subtitle format used on BDs/HD-DVDs
  48. Duration                    : 2 h 26 min
  49. Bit rate                    : 36.4 kb/s
  50. Frame rate                  : 0.485 FPS
  51. Count of elements           : 4274
  52. Stream size                 : 38.3 MiB (0%)
  53. Language                    : English
  54. Default                     : Yes
  55. Forced                      : Yes
  56. Text #2
  57. ID                          : 4
  58. Format                      : PGS
  59. Muxing mode                 : zlib
  60. Codec ID                    : S_HDMV/PGS
  61. Codec ID/Info               : Picture based subtitle format used on BDs/HD-DVDs
  62. Duration                    : 2 h 26 min
  63. Bit rate                    : 36.4 kb/s
  64. Frame rate                  : 0.485 FPS
  65. Count of elements           : 4274
  66. Stream size                 : 38.3 MiB (0%)
  67. Language                    : English
  68. Default                     : No
  69. Forced                      : No
  70. Text #3
  71. ID                          : 5
  72. Format                      : PGS
  73. Muxing mode                 : zlib
  74. Codec ID                    : S_HDMV/PGS
  75. Codec ID/Info               : Picture based subtitle format used on BDs/HD-DVDs
  76. Duration                    : 2 h 22 min
  77. Bit rate                    : 32.8 kb/s
  78. Frame rate                  : 0.411 FPS
  79. Count of elements           : 3520
  80. Stream size                 : 33.5 MiB (0%)
  81. Language                    : Chinese
  82. Default                     : No
  83. Forced                      : No
  84. Text #4
  85. ID                          : 6
  86. Format                      : PGS
  87. Muxing mode                 : zlib
  88. Codec ID                    : S_HDMV/PGS
  89. Codec ID/Info               : Picture based subtitle format used on BDs/HD-DVDs
  90. Duration                    : 2 h 28 min
  91. Bit rate                    : 29.6 kb/s
  92. Frame rate                  : 0.408 FPS
  93. Count of elements           : 3640
  94. Stream size                 : 31.4 MiB (0%)
  95. Language                    : Chinese
  96. Default                     : No
  97. Forced                      : No
  98. Text #5
  99. ID                          : 7
  100. Format                      : PGS
  101. Muxing mode                 : zlib
  102. Codec ID                    : S_HDMV/PGS
  103. Codec ID/Info               : Picture based subtitle format used on BDs/HD-DVDs
  104. Duration                    : 2 h 28 min
  105. Bit rate                    : 18.4 kb/s
  106. Frame rate                  : 0.398 FPS
  107. Count of elements           : 3544
  108. Stream size                 : 19.6 MiB (0%)
  109. Language                    : Korean
  110. Default                     : No
  111. Forced                      : No
  112. Menu
  113. 00:00:00.000                : en:Chapter 15
  114. 00:09:39.412                : en:Chapter 14
  115. 00:19:30.503                : en:Chapter 13
  116. 00:28:18.405                : en:Chapter 12
  117. 00:38:49.369                : en:Chapter 11
  118. 00:49:20.166                : en:Chapter 10
  119. 01:00:33.255                : en:Chapter 9
  120. 01:09:41.511                : en:Chapter 8
  121. 01:22:36.410                : en:Chapter 7
  122. 01:30:54.741                : en:Chapter 6
  123. 01:39:40.683                : en:Chapter 5
  124. 01:51:02.322                : en:Chapter 4
  125. 01:59:40.799                : en:Chapter 3
  126. 02:11:42.853                : en:Chapter 2
  127. 02:19:07.089                : en:Chapter 1
复制代码



4K321提示您 点击下方附件即可下载

信条.Tenet.2020.IMAX.Blu-Ray.1080P.10bit.x265.DTS-HD.MA.5.1-BNL 12.10GB

Tenet.2020.IMAX.Blu-Ray.1080P.10bit.x265.DTS-HD.MA.5.1-BNL.torrent ( 121.97 KB )

回复

使用道具 举报

全部回复50 显示全部楼层
YEAR 发表于 2023-7-30 21:49:01 | 显示全部楼层
支持4k321!
回复 支持 反对

使用道具 举报

夜风冷冷1985 发表于 2023-7-31 22:32:08 | 显示全部楼层
66666666谢谢分享!!!!
回复 支持 反对

使用道具 举报

caody5511 发表于 2023-8-1 23:14:30 | 显示全部楼层
好网站
回复 支持 反对

使用道具 举报

akiyamayukina 发表于 2023-8-2 23:24:02 | 显示全部楼层
看看
回复 支持 反对

使用道具 举报

greensnow 发表于 2023-8-3 23:57:03 | 显示全部楼层
6666666666666
回复 支持 反对

使用道具 举报

轩之懿 发表于 2023-8-5 01:45:19 | 显示全部楼层
谢谢分享,终于找到了
回复 支持 反对

使用道具 举报

Allianz-唐隆189 发表于 2023-8-6 03:04:06 | 显示全部楼层
楼主好人
回复 支持 反对

使用道具 举报

老龚 发表于 2023-8-7 03:19:29 | 显示全部楼层
谢谢分享
回复 支持 反对

使用道具 举报

周日及法定节假 发表于 2023-8-8 03:43:52 | 显示全部楼层
下载看看
回复 支持 反对

使用道具 举报

声明:您在社区发表的所有信息仅代表用户个人观点,与本网站立场无关,希望各位烧友理性发言,不发表违法国家法律禁止的话题。

您需要登录后才可以回帖 登录 | 立即注册

本版积分规则

联系客服 关注微信 下载APP 返回顶部 返回列表