开启左侧

[剧情片] 出租车司机 Taxi.Driver.1976.1080p.BluRay.REMUX.AVC.DTS-HD.MA.5.1-FGT 25.54GB

蓝鸟 发表于 2022-6-2 22:02:09 | 显示全部楼层 |阅读模式

出租车司机 Taxi.Driver.1976.1080p.BluRay.REMUX.AVC.DTS-HD.MA.5.1-FGT 25.54GB

出租车司机 Taxi.Driver.1976.1080p.BluRay.REMUX.AVC.DTS-HD.MA.5.1-FGT 25.54GB


译  名 出租车司机 / 的士司机(港) / 计程车司机(台) / 出租汽车司机
片  名 Taxi Driver
年  代 1976
产  地 美国
类  别 剧情 / 犯罪
语  言 英语 / 西班牙语
上映日期 1976-02-08(美国)
豆瓣评分 8.5/10 (183378人评价)
片  长 113分钟
导  演 马丁·斯科塞斯 Martin Scorsese
编  剧 保罗·施拉德 Paul Schrader
演  员 罗伯特·德尼罗 Robert De Niro
       朱迪·福斯特 Jodie Foster
       斯碧尔·谢波德 Cybill Shepherd
       艾伯特·布鲁克斯 Albert Brooks
       哈威·凯特尔 Harvey Keitel
       戴安娜·阿伯特 Diahnne Abbott
       维克多·阿尔果 Victor Argo
       吉诺·阿迪托 Gino Ardito
       彼得·博伊尔 Peter Boyle
       布伦达·迪克森 Brenda Dickson
       马丁·斯科塞斯 Martin Scorsese
       玛丽-帕特·格林 Mary-Pat Green
       伯纳德·赫尔曼 Bernard Herrmann
       茱莉叶·泰勒 Juliet Taylor
       Charles Rosen Charles Rosen
       Mona Orr Mona Orr

简  介

特拉维斯(罗伯特·德尼罗 Robert De Niro 饰)从越战中退伍回来后一直在纽约以开出租车为生。战争后的他多少有些失落,加上开出租车目睹了纽约夜幕下的种种罪恶,令他变得愤世嫉俗、痛恨社会。在追求总统候选人帕兰坦竞选办公室的秘书贝西失败后,特拉维斯决定去刺杀帕兰坦 以证明自己。                                    
                                在准备刺杀行动的过程中,特拉维斯遇上了被逼卖淫的雏妓艾瑞斯。在企图救艾瑞斯出火坑未果后,特拉维斯手持武器闯进淫窝,将里面的一干人等通通干掉了!本以为即将收到法律的惩罚,然而媒体却将特拉维斯描述成了一个拯救少女的英雄……


获奖情况 (共6项)

第49届奥斯卡金像奖 (1977)
  最佳影片(提名)
  最佳男主角(提名)
   └──罗伯特·德尼罗
  最佳女配角(提名)
   └──朱迪·福斯特
  最佳原创配乐(提名)
   └──伯纳德·荷曼
  第29届戛纳电影节 (1976)
  主竞赛单元 金棕榈奖
   └──马丁·斯科塞斯
  第1届报知映画赏 (1976)
  海外作品奖
   └──马丁·斯科塞斯


影片参数
  1. Video
  2. ID                                       : 1
  3. ID in the original source medium         : 4113 (0x1011)
  4. Format                                   : AVC
  5. Format/Info                              : Advanced Video Codec
  6. Format profile                           : [email protected]
  7. Format settings                          : CABAC / 2 Ref Frames
  8. Format settings, CABAC                   : Yes
  9. Format settings, Reference frames        : 2 frames
  10. Codec ID                                 : V_MPEG4/ISO/AVC
  11. Duration                                 : 1 h 53 min
  12. Bit rate mode                            : Variable
  13. Bit rate                                 : 21.9 Mb/s
  14. Width                                    : 1 920 pixels
  15. Height                                   : 1 080 pixels
  16. Display aspect ratio                     : 16:9
  17. Frame rate mode                          : Constant
  18. Frame rate                               : 23.976 (24000/1001/189150) FPS
  19. Color space                              : YUV
  20. Chroma subsampling                       : 4:2:0
  21. Bit depth                                : 8 bits
  22. Scan type                                : Progressive
  23. Bits/(Pixel*Frame)                       : 0.441
  24. Stream size                              : 17.4 GiB (68%)
  25. Language                                 : English
  26. Default                                  : No
  27. Forced                                   : No
  28. Original source medium                   : Blu-ray
  29. Audio #1
  30. ID                                       : 2
  31. ID in the original source medium         : 4352 (0x1100)
  32. Format                                   : DTS XLL
  33. Format/Info                              : Digital Theater Systems
  34. Commercial name                          : DTS-HD Master Audio
  35. Codec ID                                 : A_DTS
  36. Duration                                 : 1 h 53 min
  37. Bit rate mode                            : Variable
  38. Bit rate                                 : 2 144 kb/s
  39. Channel(s)                               : 6 channels
  40. Channel layout                           : C L R Ls Rs LFE
  41. Sampling rate                            : 48.0 kHz
  42. Frame rate                               : 93.750 FPS (512 SPF)
  43. Bit depth                                : 16 bits
  44. Compression mode                         : Lossless
  45. Stream size                              : 1.70 GiB (7%)
  46. Title                                    : DTS-HD MA 5.1
  47. Language                                 : English
  48. Default                                  : Yes
  49. Forced                                   : No
  50. Original source medium                   : Blu-ray
  51. Audio #2
  52. ID                                       : 3
  53. ID in the original source medium         : 4353 (0x1101)
  54. Format                                   : AC-3
  55. Format/Info                              : Audio Coding 3
  56. Commercial name                          : Dolby Digital
  57. Codec ID                                 : A_AC3
  58. Duration                                 : 1 h 53 min
  59. Bit rate mode                            : Constant
  60. Bit rate                                 : 640 kb/s
  61. Channel(s)                               : 6 channels
  62. Channel layout                           : L R C LFE Ls Rs
  63. Sampling rate                            : 48.0 kHz
  64. Frame rate                               : 31.250 FPS (1536 SPF)
  65. Compression mode                         : Lossy
  66. Stream size                              : 521 MiB (2%)
  67. Title                                    : DD 5.1
  68. Language                                 : Czech
  69. Service kind                             : Complete Main
  70. Default                                  : No
  71. Forced                                   : No
  72. Original source medium                   : Blu-ray
  73. Audio #3
  74. ID                                       : 4
  75. ID in the original source medium         : 4354 (0x1102)
  76. Format                                   : AC-3
  77. Format/Info                              : Audio Coding 3
  78. Commercial name                          : Dolby Digital
  79. Codec ID                                 : A_AC3
  80. Duration                                 : 1 h 53 min
  81. Bit rate mode                            : Constant
  82. Bit rate                                 : 640 kb/s
  83. Channel(s)                               : 6 channels
  84. Channel layout                           : L R C LFE Ls Rs
  85. Sampling rate                            : 48.0 kHz
  86. Frame rate                               : 31.250 FPS (1536 SPF)
  87. Compression mode                         : Lossy
  88. Stream size                              : 521 MiB (2%)
  89. Title                                    : DD 5.1
  90. Language                                 : French
  91. Service kind                             : Complete Main
  92. Default                                  : No
  93. Forced                                   : No
  94. Original source medium                   : Blu-ray
  95. Audio #4
  96. ID                                       : 5
  97. ID in the original source medium         : 4355 (0x1103)
  98. Format                                   : AC-3
  99. Format/Info                              : Audio Coding 3
  100. Commercial name                          : Dolby Digital
  101. Codec ID                                 : A_AC3
  102. Duration                                 : 1 h 53 min
  103. Bit rate mode                            : Constant
  104. Bit rate                                 : 640 kb/s
  105. Channel(s)                               : 6 channels
  106. Channel layout                           : L R C LFE Ls Rs
  107. Sampling rate                            : 48.0 kHz
  108. Frame rate                               : 31.250 FPS (1536 SPF)
  109. Compression mode                         : Lossy
  110. Stream size                              : 521 MiB (2%)
  111. Title                                    : DD 5.1
  112. Language                                 : German
  113. Service kind                             : Complete Main
  114. Default                                  : No
  115. Forced                                   : No
  116. Original source medium                   : Blu-ray
  117. Audio #5
  118. ID                                       : 6
  119. ID in the original source medium         : 4356 (0x1104)
  120. Format                                   : AC-3
  121. Format/Info                              : Audio Coding 3
  122. Commercial name                          : Dolby Digital
  123. Codec ID                                 : A_AC3
  124. Duration                                 : 1 h 53 min
  125. Bit rate mode                            : Constant
  126. Bit rate                                 : 640 kb/s
  127. Channel(s)                               : 6 channels
  128. Channel layout                           : L R C LFE Ls Rs
  129. Sampling rate                            : 48.0 kHz
  130. Frame rate                               : 31.250 FPS (1536 SPF)
  131. Compression mode                         : Lossy
  132. Stream size                              : 521 MiB (2%)
  133. Title                                    : DD 5.1
  134. Language                                 : Hungarian
  135. Service kind                             : Complete Main
  136. Default                                  : No
  137. Forced                                   : No
  138. Original source medium                   : Blu-ray
  139. Audio #6
  140. ID                                       : 7
  141. ID in the original source medium         : 4357 (0x1105)
  142. Format                                   : AC-3
  143. Format/Info                              : Audio Coding 3
  144. Commercial name                          : Dolby Digital
  145. Codec ID                                 : A_AC3
  146. Duration                                 : 1 h 53 min
  147. Bit rate mode                            : Constant
  148. Bit rate                                 : 640 kb/s
  149. Channel(s)                               : 6 channels
  150. Channel layout                           : L R C LFE Ls Rs
  151. Sampling rate                            : 48.0 kHz
  152. Frame rate                               : 31.250 FPS (1536 SPF)
  153. Compression mode                         : Lossy
  154. Stream size                              : 521 MiB (2%)
  155. Title                                    : DD 5.1
  156. Language                                 : Italian
  157. Service kind                             : Complete Main
  158. Default                                  : No
  159. Forced                                   : No
  160. Original source medium                   : Blu-ray
  161. Audio #7
  162. ID                                       : 8
  163. ID in the original source medium         : 4358 (0x1106)
  164. Format                                   : AC-3
  165. Format/Info                              : Audio Coding 3
  166. Commercial name                          : Dolby Digital
  167. Codec ID                                 : A_AC3
  168. Duration                                 : 1 h 53 min
  169. Bit rate mode                            : Constant
  170. Bit rate                                 : 640 kb/s
  171. Channel(s)                               : 6 channels
  172. Channel layout                           : L R C LFE Ls Rs
  173. Sampling rate                            : 48.0 kHz
  174. Frame rate                               : 31.250 FPS (1536 SPF)
  175. Compression mode                         : Lossy
  176. Stream size                              : 521 MiB (2%)
  177. Title                                    : DD 5.1
  178. Language                                 : Japanese
  179. Service kind                             : Complete Main
  180. Default                                  : No
  181. Forced                                   : No
  182. Original source medium                   : Blu-ray
  183. Audio #8
  184. ID                                       : 9
  185. ID in the original source medium         : 4359 (0x1107)
  186. Format                                   : AC-3
  187. Format/Info                              : Audio Coding 3
  188. Commercial name                          : Dolby Digital
  189. Codec ID                                 : A_AC3
  190. Duration                                 : 1 h 53 min
  191. Bit rate mode                            : Constant
  192. Bit rate                                 : 640 kb/s
  193. Channel(s)                               : 6 channels
  194. Channel layout                           : L R C LFE Ls Rs
  195. Sampling rate                            : 48.0 kHz
  196. Frame rate                               : 31.250 FPS (1536 SPF)
  197. Compression mode                         : Lossy
  198. Stream size                              : 521 MiB (2%)
  199. Title                                    : DD 5.1
  200. Language                                 : Polish
  201. Service kind                             : Complete Main
  202. Default                                  : No
  203. Forced                                   : No
  204. Original source medium                   : Blu-ray
  205. Audio #9
  206. ID                                       : 10
  207. ID in the original source medium         : 4360 (0x1108)
  208. Format                                   : AC-3
  209. Format/Info                              : Audio Coding 3
  210. Commercial name                          : Dolby Digital
  211. Codec ID                                 : A_AC3
  212. Duration                                 : 1 h 53 min
  213. Bit rate mode                            : Constant
  214. Bit rate                                 : 640 kb/s
  215. Channel(s)                               : 6 channels
  216. Channel layout                           : L R C LFE Ls Rs
  217. Sampling rate                            : 48.0 kHz
  218. Frame rate                               : 31.250 FPS (1536 SPF)
  219. Compression mode                         : Lossy
  220. Stream size                              : 521 MiB (2%)
  221. Title                                    : DD 5.1
  222. Language                                 : Portuguese
  223. Service kind                             : Complete Main
  224. Default                                  : No
  225. Forced                                   : No
  226. Original source medium                   : Blu-ray
  227. Audio #10
  228. ID                                       : 11
  229. ID in the original source medium         : 4361 (0x1109)
  230. Format                                   : AC-3
  231. Format/Info                              : Audio Coding 3
  232. Commercial name                          : Dolby Digital
  233. Codec ID                                 : A_AC3
  234. Duration                                 : 1 h 53 min
  235. Bit rate mode                            : Constant
  236. Bit rate                                 : 640 kb/s
  237. Channel(s)                               : 6 channels
  238. Channel layout                           : L R C LFE Ls Rs
  239. Sampling rate                            : 48.0 kHz
  240. Frame rate                               : 31.250 FPS (1536 SPF)
  241. Compression mode                         : Lossy
  242. Stream size                              : 521 MiB (2%)
  243. Title                                    : DD 5.1
  244. Language                                 : Russian
  245. Service kind                             : Complete Main
  246. Default                                  : No
  247. Forced                                   : No
  248. Original source medium                   : Blu-ray
  249. Audio #11
  250. ID                                       : 12
  251. ID in the original source medium         : 4362 (0x110A)
  252. Format                                   : AC-3
  253. Format/Info                              : Audio Coding 3
  254. Commercial name                          : Dolby Digital
  255. Codec ID                                 : A_AC3
  256. Duration                                 : 1 h 53 min
  257. Bit rate mode                            : Constant
  258. Bit rate                                 : 640 kb/s
  259. Channel(s)                               : 6 channels
  260. Channel layout                           : L R C LFE Ls Rs
  261. Sampling rate                            : 48.0 kHz
  262. Frame rate                               : 31.250 FPS (1536 SPF)
  263. Compression mode                         : Lossy
  264. Stream size                              : 521 MiB (2%)
  265. Title                                    : DD 5.1
  266. Language                                 : Spanish
  267. Service kind                             : Complete Main
  268. Default                                  : No
  269. Forced                                   : No
  270. Original source medium                   : Blu-ray
  271. Audio #12
  272. ID                                       : 13
  273. ID in the original source medium         : 4363 (0x110B)
  274. Format                                   : AC-3
  275. Format/Info                              : Audio Coding 3
  276. Commercial name                          : Dolby Digital
  277. Codec ID                                 : A_AC3
  278. Duration                                 : 1 h 53 min
  279. Bit rate mode                            : Constant
  280. Bit rate                                 : 640 kb/s
  281. Channel(s)                               : 6 channels
  282. Channel layout                           : L R C LFE Ls Rs
  283. Sampling rate                            : 48.0 kHz
  284. Frame rate                               : 31.250 FPS (1536 SPF)
  285. Compression mode                         : Lossy
  286. Stream size                              : 521 MiB (2%)
  287. Title                                    : DD 5.1
  288. Language                                 : Spanish
  289. Service kind                             : Complete Main
  290. Default                                  : No
  291. Forced                                   : No
  292. Original source medium                   : Blu-ray
  293. Audio #13
  294. ID                                       : 14
  295. ID in the original source medium         : 4364 (0x110C)
  296. Format                                   : AC-3
  297. Format/Info                              : Audio Coding 3
  298. Commercial name                          : Dolby Digital
  299. Format settings                          : Dolby Surround
  300. Codec ID                                 : A_AC3
  301. Duration                                 : 1 h 53 min
  302. Bit rate mode                            : Constant
  303. Bit rate                                 : 192 kb/s
  304. Channel(s)                               : 2 channels
  305. Channel layout                           : L R
  306. Sampling rate                            : 48.0 kHz
  307. Frame rate                               : 31.250 FPS (1536 SPF)
  308. Compression mode                         : Lossy
  309. Stream size                              : 156 MiB (0%)
  310. Title                                    : DD 2.0 - COMMENTARY 1
  311. Language                                 : English
  312. Service kind                             : Complete Main
  313. Default                                  : No
  314. Forced                                   : No
  315. Original source medium                   : Blu-ray
  316. Audio #14
  317. ID                                       : 15
  318. ID in the original source medium         : 4365 (0x110D)
  319. Format                                   : AC-3
  320. Format/Info                              : Audio Coding 3
  321. Commercial name                          : Dolby Digital
  322. Format settings                          : Dolby Surround
  323. Codec ID                                 : A_AC3
  324. Duration                                 : 1 h 53 min
  325. Bit rate mode                            : Constant
  326. Bit rate                                 : 192 kb/s
  327. Channel(s)                               : 2 channels
  328. Channel layout                           : L R
  329. Sampling rate                            : 48.0 kHz
  330. Frame rate                               : 31.250 FPS (1536 SPF)
  331. Compression mode                         : Lossy
  332. Stream size                              : 156 MiB (0%)
  333. Title                                    : DD 2.0 - COMMENTARY 2
  334. Language                                 : English
  335. Service kind                             : Complete Main
  336. Default                                  : No
  337. Forced                                   : No
  338. Original source medium                   : Blu-ray
  339. Audio #15
  340. ID                                       : 16
  341. ID in the original source medium         : 4366 (0x110E)
  342. Format                                   : AC-3
  343. Format/Info                              : Audio Coding 3
  344. Commercial name                          : Dolby Digital
  345. Format settings                          : Dolby Surround
  346. Codec ID                                 : A_AC3
  347. Duration                                 : 1 h 53 min
  348. Bit rate mode                            : Constant
  349. Bit rate                                 : 192 kb/s
  350. Channel(s)                               : 2 channels
  351. Channel layout                           : L R
  352. Sampling rate                            : 48.0 kHz
  353. Frame rate                               : 31.250 FPS (1536 SPF)
  354. Compression mode                         : Lossy
  355. Stream size                              : 156 MiB (0%)
  356. Title                                    : DD 2.0 - COMMENTARY 3
  357. Language                                 : English
  358. Service kind                             : Complete Main
  359. Default                                  : No
  360. Forced                                   : No
  361. Original source medium                   : Blu-ray
  362. Text #1
  363. ID                                       : 17
  364. Format                                   : UTF-8
  365. Codec ID                                 : S_TEXT/UTF8
  366. Codec ID/Info                            : UTF-8 Plain Text
  367. Duration                                 : 1 h 48 min
  368. Bit rate                                 : 58 b/s
  369. Count of elements                        : 1249
  370. Stream size                              : 46.1 KiB (0%)
  371. Language                                 : English
  372. Default                                  : Yes
  373. Forced                                   : No
  374. Text #2
  375. ID                                       : 18
  376. Format                                   : UTF-8
  377. Codec ID                                 : S_TEXT/UTF8
  378. Codec ID/Info                            : UTF-8 Plain Text
  379. Duration                                 : 1 h 50 min
  380. Bit rate                                 : 58 b/s
  381. Count of elements                        : 1320
  382. Stream size                              : 47.3 KiB (0%)
  383. Title                                    : SDH
  384. Language                                 : English
  385. Default                                  : No
  386. Forced                                   : No
  387. Text #3
  388. ID                                       : 19
  389. ID in the original source medium         : 4608 (0x1200)
  390. Format                                   : PGS
  391. Muxing mode                              : zlib
  392. Codec ID                                 : S_HDMV/PGS
  393. Codec ID/Info                            : Picture based subtitle format used on BDs/HD-DVDs
  394. Duration                                 : 1 h 50 min
  395. Bit rate                                 : 34.3 kb/s
  396. Count of elements                        : 2691
  397. Stream size                              : 27.0 MiB (0%)
  398. Language                                 : English
  399. Default                                  : No
  400. Forced                                   : No
  401. Original source medium                   : Blu-ray
  402. Text #4
  403. ID                                       : 20
  404. ID in the original source medium         : 4609 (0x1201)
  405. Format                                   : PGS
  406. Muxing mode                              : zlib
  407. Codec ID                                 : S_HDMV/PGS
  408. Codec ID/Info                            : Picture based subtitle format used on BDs/HD-DVDs
  409. Duration                                 : 1 h 48 min
  410. Bit rate                                 : 31.7 kb/s
  411. Count of elements                        : 2449
  412. Stream size                              : 24.5 MiB (0%)
  413. Language                                 : English
  414. Default                                  : No
  415. Forced                                   : No
  416. Original source medium                   : Blu-ray
  417. Text #5
  418. ID                                       : 21
  419. ID in the original source medium         : 4610 (0x1202)
  420. Format                                   : PGS
  421. Muxing mode                              : zlib
  422. Codec ID                                 : S_HDMV/PGS
  423. Codec ID/Info                            : Picture based subtitle format used on BDs/HD-DVDs
  424. Duration                                 : 1 h 48 min
  425. Bit rate                                 : 28.0 kb/s
  426. Count of elements                        : 2509
  427. Stream size                              : 21.6 MiB (0%)
  428. Language                                 : Chinese
  429. Default                                  : No
  430. Forced                                   : No
  431. Original source medium                   : Blu-ray
  432. Text #6
  433. ID                                       : 22
  434. ID in the original source medium         : 4611 (0x1203)
  435. Format                                   : PGS
  436. Muxing mode                              : zlib
  437. Codec ID                                 : S_HDMV/PGS
  438. Codec ID/Info                            : Picture based subtitle format used on BDs/HD-DVDs
  439. Duration                                 : 1 h 48 min
  440. Bit rate                                 : 25.9 kb/s
  441. Count of elements                        : 2467
  442. Stream size                              : 20.0 MiB (0%)
  443. Language                                 : Czech
  444. Default                                  : No
  445. Forced                                   : No
  446. Original source medium                   : Blu-ray
  447. Text #7
  448. ID                                       : 23
  449. ID in the original source medium         : 4612 (0x1204)
  450. Format                                   : PGS
  451. Muxing mode                              : zlib
  452. Codec ID                                 : S_HDMV/PGS
  453. Codec ID/Info                            : Picture based subtitle format used on BDs/HD-DVDs
  454. Duration                                 : 1 h 48 min
  455. Bit rate                                 : 23.8 kb/s
  456. Count of elements                        : 1650
  457. Stream size                              : 18.4 MiB (0%)
  458. Language                                 : Danish
  459. Default                                  : No
  460. Forced                                   : No
  461. Original source medium                   : Blu-ray
  462. Text #8
  463. ID                                       : 24
  464. ID in the original source medium         : 4613 (0x1205)
  465. Format                                   : PGS
  466. Muxing mode                              : zlib
  467. Codec ID                                 : S_HDMV/PGS
  468. Codec ID/Info                            : Picture based subtitle format used on BDs/HD-DVDs
  469. Duration                                 : 1 h 47 min
  470. Bit rate                                 : 28.0 kb/s
  471. Count of elements                        : 2355
  472. Stream size                              : 21.7 MiB (0%)
  473. Language                                 : Dutch
  474. Default                                  : No
  475. Forced                                   : No
  476. Original source medium                   : Blu-ray
  477. Text #9
  478. ID                                       : 25
  479. ID in the original source medium         : 4614 (0x1206)
  480. Format                                   : PGS
  481. Muxing mode                              : zlib
  482. Codec ID                                 : S_HDMV/PGS
  483. Codec ID/Info                            : Picture based subtitle format used on BDs/HD-DVDs
  484. Duration                                 : 1 h 48 min
  485. Bit rate                                 : 25.7 kb/s
  486. Count of elements                        : 1763
  487. Stream size                              : 19.9 MiB (0%)
  488. Language                                 : Finnish
  489. Default                                  : No
  490. Forced                                   : No
  491. Original source medium                   : Blu-ray
  492. Text #10
  493. ID                                       : 26
  494. ID in the original source medium         : 4615 (0x1207)
  495. Format                                   : PGS
  496. Muxing mode                              : zlib
  497. Codec ID                                 : S_HDMV/PGS
  498. Codec ID/Info                            : Picture based subtitle format used on BDs/HD-DVDs
  499. Duration                                 : 1 h 51 min
  500. Bit rate                                 : 27.4 kb/s
  501. Count of elements                        : 2424
  502. Stream size                              : 21.8 MiB (0%)
  503. Language                                 : French
  504. Default                                  : No
  505. Forced                                   : No
  506. Original source medium                   : Blu-ray
  507. Text #11
  508. ID                                       : 27
  509. ID in the original source medium         : 4616 (0x1208)
  510. Format                                   : PGS
  511. Muxing mode                              : zlib
  512. Codec ID                                 : S_HDMV/PGS
  513. Codec ID/Info                            : Picture based subtitle format used on BDs/HD-DVDs
  514. Duration                                 : 1 h 47 min
  515. Bit rate                                 : 32.3 kb/s
  516. Count of elements                        : 2483
  517. Stream size                              : 25.0 MiB (0%)
  518. Language                                 : German
  519. Default                                  : No
  520. Forced                                   : No
  521. Original source medium                   : Blu-ray
  522. Text #12
  523. ID                                       : 28
  524. ID in the original source medium         : 4617 (0x1209)
  525. Format                                   : PGS
  526. Muxing mode                              : zlib
  527. Codec ID                                 : S_HDMV/PGS
  528. Codec ID/Info                            : Picture based subtitle format used on BDs/HD-DVDs
  529. Duration                                 : 1 h 48 min
  530. Bit rate                                 : 29.4 kb/s
  531. Count of elements                        : 2469
  532. Stream size                              : 22.7 MiB (0%)
  533. Language                                 : Greek
  534. Default                                  : No
  535. Forced                                   : No
  536. Original source medium                   : Blu-ray
  537. Text #13
  538. ID                                       : 29
  539. ID in the original source medium         : 4618 (0x120A)
  540. Format                                   : PGS
  541. Muxing mode                              : zlib
  542. Codec ID                                 : S_HDMV/PGS
  543. Codec ID/Info                            : Picture based subtitle format used on BDs/HD-DVDs
  544. Duration                                 : 1 h 48 min
  545. Bit rate                                 : 26.3 kb/s
  546. Count of elements                        : 2447
  547. Stream size                              : 20.3 MiB (0%)
  548. Language                                 : Hungarian
  549. Default                                  : No
  550. Forced                                   : No
  551. Original source medium                   : Blu-ray
  552. Text #14
  553. ID                                       : 30
  554. ID in the original source medium         : 4619 (0x120B)
  555. Format                                   : PGS
  556. Muxing mode                              : zlib
  557. Codec ID                                 : S_HDMV/PGS
  558. Codec ID/Info                            : Picture based subtitle format used on BDs/HD-DVDs
  559. Duration                                 : 1 h 48 min
  560. Bit rate                                 : 29.6 kb/s
  561. Count of elements                        : 2466
  562. Stream size                              : 22.9 MiB (0%)
  563. Language                                 : Italian
  564. Default                                  : No
  565. Forced                                   : No
  566. Original source medium                   : Blu-ray
  567. Text #15
  568. ID                                       : 31
  569. ID in the original source medium         : 4620 (0x120C)
  570. Format                                   : PGS
  571. Muxing mode                              : zlib
  572. Codec ID                                 : S_HDMV/PGS
  573. Codec ID/Info                            : Picture based subtitle format used on BDs/HD-DVDs
  574. Duration                                 : 1 h 47 min
  575. Bit rate                                 : 21.8 kb/s
  576. Count of elements                        : 2204
  577. Stream size                              : 16.8 MiB (0%)
  578. Language                                 : Japanese
  579. Default                                  : No
  580. Forced                                   : No
  581. Original source medium                   : Blu-ray
  582. Text #16
  583. ID                                       : 32
  584. ID in the original source medium         : 4621 (0x120D)
  585. Format                                   : PGS
  586. Muxing mode                              : zlib
  587. Codec ID                                 : S_HDMV/PGS
  588. Codec ID/Info                            : Picture based subtitle format used on BDs/HD-DVDs
  589. Duration                                 : 1 h 49 min
  590. Bit rate                                 : 21.2 kb/s
  591. Count of elements                        : 1963
  592. Stream size                              : 16.7 MiB (0%)
  593. Language                                 : Korean
  594. Default                                  : No
  595. Forced                                   : No
  596. Original source medium                   : Blu-ray
  597. Text #17
  598. ID                                       : 33
  599. ID in the original source medium         : 4622 (0x120E)
  600. Format                                   : PGS
  601. Muxing mode                              : zlib
  602. Codec ID                                 : S_HDMV/PGS
  603. Codec ID/Info                            : Picture based subtitle format used on BDs/HD-DVDs
  604. Duration                                 : 1 h 48 min
  605. Bit rate                                 : 23.9 kb/s
  606. Count of elements                        : 1832
  607. Stream size                              : 18.4 MiB (0%)
  608. Language                                 : Norwegian
  609. Default                                  : No
  610. Forced                                   : No
  611. Original source medium                   : Blu-ray
  612. Text #18
  613. ID                                       : 34
  614. ID in the original source medium         : 4623 (0x120F)
  615. Format                                   : PGS
  616. Muxing mode                              : zlib
  617. Codec ID                                 : S_HDMV/PGS
  618. Codec ID/Info                            : Picture based subtitle format used on BDs/HD-DVDs
  619. Duration                                 : 1 h 48 min
  620. Bit rate                                 : 24.9 kb/s
  621. Count of elements                        : 2413
  622. Stream size                              : 19.2 MiB (0%)
  623. Language                                 : Polish
  624. Default                                  : No
  625. Forced                                   : No
  626. Original source medium                   : Blu-ray
  627. Text #19
  628. ID                                       : 35
  629. ID in the original source medium         : 4624 (0x1210)
  630. Format                                   : PGS
  631. Muxing mode                              : zlib
  632. Codec ID                                 : S_HDMV/PGS
  633. Codec ID/Info                            : Picture based subtitle format used on BDs/HD-DVDs
  634. Duration                                 : 1 h 48 min
  635. Bit rate                                 : 30.6 kb/s
  636. Count of elements                        : 2480
  637. Stream size                              : 23.6 MiB (0%)
  638. Language                                 : Portuguese
  639. Default                                  : No
  640. Forced                                   : No
  641. Original source medium                   : Blu-ray
  642. Text #20
  643. ID                                       : 36
  644. ID in the original source medium         : 4625 (0x1211)
  645. Format                                   : PGS
  646. Muxing mode                              : zlib
  647. Codec ID                                 : S_HDMV/PGS
  648. Codec ID/Info                            : Picture based subtitle format used on BDs/HD-DVDs
  649. Duration                                 : 1 h 48 min
  650. Bit rate                                 : 30.2 kb/s
  651. Count of elements                        : 2402
  652. Stream size                              : 23.4 MiB (0%)
  653. Language                                 : Portuguese
  654. Default                                  : No
  655. Forced                                   : No
  656. Original source medium                   : Blu-ray
  657. Text #21
  658. ID                                       : 37
  659. ID in the original source medium         : 4626 (0x1212)
  660. Format                                   : PGS
  661. Muxing mode                              : zlib
  662. Codec ID                                 : S_HDMV/PGS
  663. Codec ID/Info                            : Picture based subtitle format used on BDs/HD-DVDs
  664. Duration                                 : 1 h 47 min
  665. Bit rate                                 : 28.6 kb/s
  666. Count of elements                        : 2467
  667. Stream size                              : 22.1 MiB (0%)
  668. Language                                 : Spanish
  669. Default                                  : No
  670. Forced                                   : No
  671. Original source medium                   : Blu-ray
  672. Text #22
  673. ID                                       : 38
  674. ID in the original source medium         : 4627 (0x1213)
  675. Format                                   : PGS
  676. Muxing mode                              : zlib
  677. Codec ID                                 : S_HDMV/PGS
  678. Codec ID/Info                            : Picture based subtitle format used on BDs/HD-DVDs
  679. Duration                                 : 1 h 48 min
  680. Bit rate                                 : 27.9 kb/s
  681. Count of elements                        : 2514
  682. Stream size                              : 21.5 MiB (0%)
  683. Language                                 : Spanish
  684. Default                                  : No
  685. Forced                                   : No
  686. Original source medium                   : Blu-ray
  687. Text #23
  688. ID                                       : 39
  689. ID in the original source medium         : 4628 (0x1214)
  690. Format                                   : PGS
  691. Muxing mode                              : zlib
  692. Codec ID                                 : S_HDMV/PGS
  693. Codec ID/Info                            : Picture based subtitle format used on BDs/HD-DVDs
  694. Duration                                 : 1 h 51 min
  695. Bit rate                                 : 23.9 kb/s
  696. Count of elements                        : 1871
  697. Stream size                              : 19.0 MiB (0%)
  698. Language                                 : Swedish
  699. Default                                  : No
  700. Forced                                   : No
  701. Original source medium                   : Blu-ray
  702. Text #24
  703. ID                                       : 40
  704. ID in the original source medium         : 4629 (0x1215)
  705. Format                                   : PGS
  706. Muxing mode                              : zlib
  707. Codec ID                                 : S_HDMV/PGS
  708. Codec ID/Info                            : Picture based subtitle format used on BDs/HD-DVDs
  709. Duration                                 : 1 h 47 min
  710. Bit rate                                 : 29.4 kb/s
  711. Count of elements                        : 2421
  712. Stream size                              : 22.7 MiB (0%)
  713. Language                                 : Turkish
  714. Default                                  : No
  715. Forced                                   : No
  716. Original source medium                   : Blu-ray
  717. Text #25
  718. ID                                       : 41
  719. ID in the original source medium         : 4630 (0x1216)
  720. Format                                   : PGS
  721. Muxing mode                              : zlib
  722. Codec ID                                 : S_HDMV/PGS
  723. Codec ID/Info                            : Picture based subtitle format used on BDs/HD-DVDs
  724. Duration                                 : 1 h 52 min
  725. Bit rate                                 : 66.8 kb/s
  726. Count of elements                        : 4014
  727. Stream size                              : 53.9 MiB (0%)
  728. Title                                    : COMMENTARY 1
  729. Language                                 : English
  730. Default                                  : No
  731. Forced                                   : No
  732. Original source medium                   : Blu-ray
  733. Text #26
  734. ID                                       : 42
  735. ID in the original source medium         : 4631 (0x1217)
  736. Format                                   : PGS
  737. Muxing mode                              : zlib
  738. Codec ID                                 : S_HDMV/PGS
  739. Codec ID/Info                            : Picture based subtitle format used on BDs/HD-DVDs
  740. Duration                                 : 1 h 52 min
  741. Bit rate                                 : 41.4 kb/s
  742. Count of elements                        : 2697
  743. Stream size                              : 33.4 MiB (0%)
  744. Title                                    : COMMENTARY 1
  745. Language                                 : Japanese
  746. Default                                  : No
  747. Forced                                   : No
  748. Original source medium                   : Blu-ray
  749. Text #27
  750. ID                                       : 43
  751. ID in the original source medium         : 4632 (0x1218)
  752. Format                                   : PGS
  753. Muxing mode                              : zlib
  754. Codec ID                                 : S_HDMV/PGS
  755. Codec ID/Info                            : Picture based subtitle format used on BDs/HD-DVDs
  756. Duration                                 : 1 h 52 min
  757. Bit rate                                 : 56.8 kb/s
  758. Count of elements                        : 3906
  759. Stream size                              : 45.8 MiB (0%)
  760. Title                                    : COMMENTARY 1
  761. Language                                 : Spanish
  762. Default                                  : No
  763. Forced                                   : No
  764. Original source medium                   : Blu-ray
  765. Text #28
  766. ID                                       : 44
  767. ID in the original source medium         : 4633 (0x1219)
  768. Format                                   : PGS
  769. Muxing mode                              : zlib
  770. Codec ID                                 : S_HDMV/PGS
  771. Codec ID/Info                            : Picture based subtitle format used on BDs/HD-DVDs
  772. Duration                                 : 42 min 38 s
  773. Bit rate                                 : 219 b/s
  774. Count of elements                        : 8
  775. Stream size                              : 68.5 KiB (0%)
  776. Title                                    : COMMENTARY 1
  777. Language                                 : Japanese
  778. Default                                  : No
  779. Forced                                   : No
  780. Original source medium                   : Blu-ray
  781. Text #29
  782. ID                                       : 45
  783. ID in the original source medium         : 4634 (0x121A)
  784. Format                                   : PGS
  785. Muxing mode                              : zlib
  786. Codec ID                                 : S_HDMV/PGS
  787. Codec ID/Info                            : Picture based subtitle format used on BDs/HD-DVDs
  788. Duration                                 : 1 h 52 min
  789. Bit rate                                 : 50.2 kb/s
  790. Count of elements                        : 3421
  791. Stream size                              : 40.4 MiB (0%)
  792. Title                                    : COMMENTARY 2
  793. Language                                 : English
  794. Default                                  : No
  795. Forced                                   : No
  796. Original source medium                   : Blu-ray
  797. Text #30
  798. ID                                       : 46
  799. ID in the original source medium         : 4635 (0x121B)
  800. Format                                   : PGS
  801. Muxing mode                              : zlib
  802. Codec ID                                 : S_HDMV/PGS
  803. Codec ID/Info                            : Picture based subtitle format used on BDs/HD-DVDs
  804. Duration                                 : 1 h 51 min
  805. Bit rate                                 : 34.2 kb/s
  806. Count of elements                        : 2131
  807. Stream size                              : 27.3 MiB (0%)
  808. Title                                    : COMMENTARY 2
  809. Language                                 : Japanese
  810. Default                                  : No
  811. Forced                                   : No
  812. Original source medium                   : Blu-ray
  813. Text #31
  814. ID                                       : 47
  815. ID in the original source medium         : 4636 (0x121C)
  816. Format                                   : PGS
  817. Muxing mode                              : zlib
  818. Codec ID                                 : S_HDMV/PGS
  819. Codec ID/Info                            : Picture based subtitle format used on BDs/HD-DVDs
  820. Duration                                 : 1 h 51 min
  821. Bit rate                                 : 41.7 kb/s
  822. Count of elements                        : 3185
  823. Stream size                              : 33.2 MiB (0%)
  824. Title                                    : COMMENTARY 2
  825. Language                                 : Spanish
  826. Default                                  : No
  827. Forced                                   : No
  828. Original source medium                   : Blu-ray
  829. Text #32
  830. ID                                       : 48
  831. ID in the original source medium         : 4637 (0x121D)
  832. Format                                   : PGS
  833. Muxing mode                              : zlib
  834. Codec ID                                 : S_HDMV/PGS
  835. Codec ID/Info                            : Picture based subtitle format used on BDs/HD-DVDs
  836. Duration                                 : 1 h 51 min
  837. Bit rate                                 : 45.0 kb/s
  838. Count of elements                        : 3227
  839. Stream size                              : 36.0 MiB (0%)
  840. Title                                    : COMMENTARY 3
  841. Language                                 : English
  842. Default                                  : No
  843. Forced                                   : No
  844. Original source medium                   : Blu-ray
  845. Text #33
  846. ID                                       : 49
  847. ID in the original source medium         : 4638 (0x121E)
  848. Format                                   : PGS
  849. Muxing mode                              : zlib
  850. Codec ID                                 : S_HDMV/PGS
  851. Codec ID/Info                            : Picture based subtitle format used on BDs/HD-DVDs
  852. Duration                                 : 1 h 50 min
  853. Bit rate                                 : 23.4 kb/s
  854. Count of elements                        : 1453
  855. Stream size                              : 18.5 MiB (0%)
  856. Title                                    : COMMENTARY 3
  857. Language                                 : Japanese
  858. Default                                  : No
  859. Forced                                   : No
  860. Original source medium                   : Blu-ray
  861. Text #34
  862. ID                                       : 50
  863. ID in the original source medium         : 4639 (0x121F)
  864. Format                                   : PGS
  865. Muxing mode                              : zlib
  866. Codec ID                                 : S_HDMV/PGS
  867. Codec ID/Info                            : Picture based subtitle format used on BDs/HD-DVDs
  868. Duration                                 : 1 h 50 min
  869. Bit rate                                 : 34.5 kb/s
  870. Count of elements                        : 2864
  871. Stream size                              : 27.3 MiB (0%)
  872. Title                                    : COMMENTARY 3
  873. Language                                 : Spanish
  874. Default                                  : No
  875. Forced                                   : No
  876. Original source medium                   : Blu-ray
  877. Menu
  878. 00:00:00.000                             : en:Chapter 01
  879. 00:10:59.033                             : en:Chapter 02
  880. 00:20:05.037                             : en:Chapter 03
  881. 00:28:21.074                             : en:Chapter 04
  882. 00:33:12.198                             : en:Chapter 05
  883. 00:40:11.492                             : en:Chapter 06
  884. 00:44:03.641                             : en:Chapter 07
  885. 00:51:42.182                             : en:Chapter 08
  886. 01:01:10.249                             : en:Chapter 09
  887. 01:08:11.504                             : en:Chapter 10
  888. 01:14:49.026                             : en:Chapter 11
  889. 01:24:46.039                             : en:Chapter 12
  890. 01:29:42.752                             : en:Chapter 13
  891. 01:34:11.854                             : en:Chapter 14
  892. 01:38:02.376                             : en:Chapter 15
  893. 01:45:57.559                             : en:Chapter 16
复制代码



4K321提示您 点击下方附件即可下载

出租车司机 Taxi.Driver.1976.1080p.BluRay.REMUX.AVC.DTS-HD.MA.5.1-FGT 25.54GB

Taxi.Driver.1976.1080p.BluRay.REMUX.AVC.DTS-HD.MA.5.1-FGT.torrent ( 32.56 KB )

回复

使用道具 举报

全部回复0 显示全部楼层

声明:您在社区发表的所有信息仅代表用户个人观点,与本网站立场无关,希望各位烧友理性发言,不发表违法国家法律禁止的话题。

您需要登录后才可以回帖 登录 | 立即注册

本版积分规则

联系客服 关注微信 下载APP 返回顶部 返回列表