开启左侧

[动作片] 僵尸来袭2:末日 Wyrmwood.Apocalypse.2021.1080p.BluRay.REMUX.AVC.DTS-HD.MA.5.1-FGT 23.08GB

蓝鸟 发表于 2022-6-2 22:01:41 | 显示全部楼层 |阅读模式

僵尸来袭2:末日 Wyrmwood.Apocalypse.2021.1080p.BluRay.REMUX.AVC.DTS-HD.MA.5.1-FGT 23.08GB

僵尸来袭2:末日 Wyrmwood.Apocalypse.2021.1080p.BluRay.REMUX.AVC.DTS-HD.MA.5.1-FGT 23.08GB


译  名 僵尸来袭2:末日
片  名 Wyrmwood: Apocalypse
年  代 2022
产  地 澳大利亚 Australia
类  别 动作 / 科幻 / 恐怖
语  言 英语
上映日期 2022-02-01(悉尼)
豆瓣评分 5.7/10 (1306人评价)
片  长 88分钟
导  演 凯亚·罗奇-特纳 Kiah Roache-Turner
编  剧 凯亚·罗奇-特纳 Kiah Roache-Turner
       崔斯坦·罗奇-特纳 Tristan Roache-Turner
演  员 碧安卡·布雷迪 Bianca Bradey

简  介

In a zombie-infested Australian wasteland, soldier Rhys has dedicated his life to tracking and capturing survivors for the Surgeon General in hopes of finding a cure.


影片参数
  1. Video
  2. ID                                       : 1
  3. ID in the original source medium         : 4113 (0x1011)
  4. Format                                   : AVC
  5. Format/Info                              : Advanced Video Codec
  6. Format profile                           : [email protected]
  7. Format settings                          : CABAC / 4 Ref Frames
  8. Format settings, CABAC                   : Yes
  9. Format settings, Reference frames        : 4 frames
  10. Codec ID                                 : V_MPEG4/ISO/AVC
  11. Duration                                 : 1 h 28 min
  12. Bit rate mode                            : Variable
  13. Bit rate                                 : 31.8 Mb/s
  14. Maximum bit rate                         : 38.0 Mb/s
  15. Width                                    : 1 920 pixels
  16. Height                                   : 1 080 pixels
  17. Display aspect ratio                     : 16:9
  18. Frame rate mode                          : Constant
  19. Frame rate                               : 24.000 FPS
  20. Color space                              : YUV
  21. Chroma subsampling                       : 4:2:0
  22. Bit depth                                : 8 bits
  23. Scan type                                : Progressive
  24. Bits/(Pixel*Frame)                       : 0.639
  25. Stream size                              : 19.6 GiB (85%)
  26. Language                                 : English
  27. Default                                  : No
  28. Forced                                   : No
  29. Original source medium                   : Blu-ray
  30. Audio #1
  31. ID                                       : 2
  32. ID in the original source medium         : 4352 (0x1100)
  33. Format                                   : DTS XLL
  34. Format/Info                              : Digital Theater Systems
  35. Commercial name                          : DTS-HD Master Audio
  36. Codec ID                                 : A_DTS
  37. Duration                                 : 1 h 28 min
  38. Bit rate mode                            : Variable
  39. Bit rate                                 : 4 150 kb/s
  40. Channel(s)                               : 6 channels
  41. Channel layout                           : C L R Ls Rs LFE
  42. Sampling rate                            : 48.0 kHz
  43. Frame rate                               : 93.750 FPS (512 SPF)
  44. Bit depth                                : 24 bits
  45. Compression mode                         : Lossless
  46. Stream size                              : 2.55 GiB (11%)
  47. Title                                    : DTS-HD MA 5.1
  48. Language                                 : English
  49. Default                                  : Yes
  50. Forced                                   : No
  51. Original source medium                   : Blu-ray
  52. Audio #2
  53. ID                                       : 3
  54. ID in the original source medium         : 4353 (0x1101)
  55. Format                                   : DTS XLL
  56. Format/Info                              : Digital Theater Systems
  57. Commercial name                          : DTS-HD Master Audio
  58. Codec ID                                 : A_DTS
  59. Duration                                 : 1 h 28 min
  60. Bit rate mode                            : Variable
  61. Bit rate                                 : 1 557 kb/s
  62. Channel(s)                               : 2 channels
  63. Sampling rate                            : 48.0 kHz
  64. Frame rate                               : 93.750 FPS (512 SPF)
  65. Bit depth                                : 24 bits
  66. Compression mode                         : Lossless
  67. Stream size                              : 981 MiB (4%)
  68. Title                                    : DTS-HD MA 2.0
  69. Language                                 : English
  70. Default                                  : No
  71. Forced                                   : No
  72. Original source medium                   : Blu-ray
  73. Text #1
  74. ID                                       : 4
  75. Format                                   : UTF-8
  76. Codec ID                                 : S_TEXT/UTF8
  77. Codec ID/Info                            : UTF-8 Plain Text
  78. Duration                                 : 1 h 22 min
  79. Bit rate                                 : 24 b/s
  80. Count of elements                        : 601
  81. Stream size                              : 14.9 KiB (0%)
  82. Language                                 : English
  83. Default                                  : Yes
  84. Forced                                   : No
  85. Text #2
  86. ID                                       : 5
  87. Format                                   : UTF-8
  88. Codec ID                                 : S_TEXT/UTF8
  89. Codec ID/Info                            : UTF-8 Plain Text
  90. Duration                                 : 1 h 23 min
  91. Bit rate                                 : 27 b/s
  92. Count of elements                        : 745
  93. Stream size                              : 17.1 KiB (0%)
  94. Title                                    : SDH
  95. Language                                 : English
  96. Default                                  : No
  97. Forced                                   : No
  98. Text #3
  99. ID                                       : 6
  100. ID in the original source medium         : 4608 (0x1200)
  101. Format                                   : PGS
  102. Muxing mode                              : zlib
  103. Codec ID                                 : S_HDMV/PGS
  104. Codec ID/Info                            : Picture based subtitle format used on BDs/HD-DVDs
  105. Duration                                 : 1 h 23 min
  106. Bit rate                                 : 20.8 kb/s
  107. Count of elements                        : 1514
  108. Stream size                              : 12.4 MiB (0%)
  109. Language                                 : English
  110. Default                                  : No
  111. Forced                                   : No
  112. Original source medium                   : Blu-ray
  113. Menu
  114. 00:00:00.000                             : en:Chapter 01
  115. 00:07:19.250                             : en:Chapter 02
  116. 00:14:16.791                             : en:Chapter 03
  117. 00:19:57.208                             : en:Chapter 04
  118. 00:26:26.791                             : en:Chapter 05
  119. 00:33:43.208                             : en:Chapter 06
  120. 00:41:14.250                             : en:Chapter 07
  121. 00:48:35.791                             : en:Chapter 08
  122. 00:57:50.625                             : en:Chapter 09
  123. 01:03:56.375                             : en:Chapter 10
  124. 01:14:59.625                             : en:Chapter 11
  125. 01:24:17.750                             : en:Chapter 12
复制代码



4K321提示您 点击下方附件即可下载

僵尸来袭2:末日 Wyrmwood.Apocalypse.2021.1080p.BluRay.REMUX.AVC.DTS-HD.MA.5.1-FGT 23.08GB

Wyrmwood.Apocalypse.2021.1080p.BluRay.REMUX.AVC.DTS-HD.MA.5.1-FGT.torrent ( 29.49 KB )

回复

使用道具 举报

全部回复0 显示全部楼层

声明:您在社区发表的所有信息仅代表用户个人观点,与本网站立场无关,希望各位烧友理性发言,不发表违法国家法律禁止的话题。

您需要登录后才可以回帖 登录 | 立即注册

本版积分规则

联系客服 关注微信 下载APP 返回顶部 返回列表