开启左侧

[科幻片] 世界之战:灭绝 War.of.the.Worlds.Anhihilation.2021.1080p.BluRay.REMUX.AVC.DTS-HD.MA.5.1-FGT 17.08GB

蓝鸟 发表于 2022-6-2 22:01:17 | 显示全部楼层 |阅读模式


译  名 世界之战:灭绝
片  名 War of the Worlds: Annihilation
年  代 2021
产  地 美国
类  别 科幻
语  言 英语
上映日期 2021-12-30(美国)
片  长 113分钟
演  员 诺尔·古格雷米 Noel Gugliemi
       威廉·鲍德温 William Baldwin

简  介

在一场惩罚性的外星人入侵之后,母亲和儿子生存的唯一希望,就是发现一个不可思议的真相。


影片参数
  1. Video
  2. ID                                       : 1
  3. ID in the original source medium         : 4113 (0x1011)
  4. Format                                   : AVC
  5. Format/Info                              : Advanced Video Codec
  6. Format profile                           : [email protected]
  7. Format settings                          : CABAC / 4 Ref Frames
  8. Format settings, CABAC                   : Yes
  9. Format settings, Reference frames        : 4 frames
  10. Codec ID                                 : V_MPEG4/ISO/AVC
  11. Duration                                 : 1 h 30 min
  12. Bit rate mode                            : Variable
  13. Bit rate                                 : 25.0 Mb/s
  14. Maximum bit rate                         : 35.0 Mb/s
  15. Width                                    : 1 920 pixels
  16. Height                                   : 1 080 pixels
  17. Display aspect ratio                     : 16:9
  18. Frame rate mode                          : Constant
  19. Frame rate                               : 23.976 (24000/1001/189150) FPS
  20. Standard                                 : Component
  21. Color space                              : YUV
  22. Chroma subsampling                       : 4:2:0
  23. Bit depth                                : 8 bits
  24. Scan type                                : Progressive
  25. Bits/(Pixel*Frame)                       : 0.503
  26. Stream size                              : 15.8 GiB (92%)
  27. Writing library                          : x264 core 155
  28. Encoding settings                        : cabac=1 / ref=4 / deblock=1:0:0 / analyse=0x3:0x133 / me=umh / subme=9 / psy=1 / psy_rd=1.00:0.00 / mixed_ref=1 / me_range=16 / chroma_me=1 / trellis=2 / 8x8dct=1 / cqm=1 / deadzone=21,11 / fast_pskip=1 / chroma_qp_offset=-2 / threads=24 / lookahead_threads=2 / sliced_threads=0 / slices=4 / nr=0 / decimate=1 / interlaced=0 / minigop=1 / stitchable=1 / constrained_intra=0 / bframes=3 / b_pyramid=0 / b_adapt=2 / b_bias=0 / direct=3 / weightb=1 / open_gop=1 / weightp=1 / keyint=24 / keyint_min=1 / scenecut=40 / intra_refresh=0 / rc_lookahead=24 / rc=2pass / mbtree=1 / bitrate=25000 / ratetol=1.0 / qcomp=0.60 / qpmin=3 / qpmax=69 / qpstep=4 / cplxblur=20.0 / qblur=0.5 / vbv_maxrate=35000 / vbv_bufsize=30000 / nal_hrd=vbr / filler=0 / ip_ratio=1.40 / aq=1:1.00
  29. Language                                 : English
  30. Default                                  : No
  31. Forced                                   : No
  32. Color range                              : Limited
  33. Color primaries                          : BT.709
  34. Transfer characteristics                 : BT.709
  35. Matrix coefficients                      : BT.709
  36. Original source medium                   : Blu-ray
  37. Audio
  38. ID                                       : 2
  39. ID in the original source medium         : 4353 (0x1101)
  40. Format                                   : DTS XLL
  41. Format/Info                              : Digital Theater Systems
  42. Commercial name                          : DTS-HD Master Audio
  43. Codec ID                                 : A_DTS
  44. Duration                                 : 1 h 30 min
  45. Bit rate mode                            : Variable
  46. Bit rate                                 : 2 094 kb/s
  47. Channel(s)                               : 6 channels
  48. Channel layout                           : C L R Ls Rs LFE
  49. Sampling rate                            : 48.0 kHz
  50. Frame rate                               : 93.750 FPS (512 SPF)
  51. Bit depth                                : 16 bits
  52. Compression mode                         : Lossless
  53. Stream size                              : 1.32 GiB (8%)
  54. Title                                    : DTS-HD MA 5.1
  55. Language                                 : English
  56. Default                                  : Yes
  57. Forced                                   : No
  58. Original source medium                   : Blu-ray
  59. Menu
  60. 00:00:00.000                             : de:Chapter 01
  61. 00:12:07.727                             : de:Chapter 02
  62. 00:24:52.782                             : de:Chapter 03
  63. 00:33:13.908                             : de:Chapter 04
  64. 00:41:41.916                             : de:Chapter 05
  65. 00:52:16.424                             : de:Chapter 06
  66. 01:06:11.968                             : de:Chapter 07
  67. 01:13:30.948                             : de:Chapter 08
复制代码




4K321提示您 点击下方附件即可下载

世界之战:灭绝 War.of.the.Worlds.Anhihilation.2021.1080p.BluRay.REMUX.AVC.DTS-HD.MA.5.1-FGT 17.08GB

War.of.the.Worlds.Anhihilation.2021.1080p.BluRay.REMUX.AVC.DTS-HD.MA.5.1-FGT.torrent ( 22.02 KB )

回复

使用道具 举报

全部回复0 显示全部楼层

声明:您在社区发表的所有信息仅代表用户个人观点,与本网站立场无关,希望各位烧友理性发言,不发表违法国家法律禁止的话题。

您需要登录后才可以回帖 登录 | 立即注册

本版积分规则

联系客服 关注微信 下载APP 返回顶部 返回列表