开启左侧

[剧情片] 公民凯恩 Citizen.Kane.1941.1080p.BluRay.REMUX.AVC.DTS-HD.MA.1.0-FGT 27.02GB

蓝鸟 发表于 2022-6-2 21:41:04 | 显示全部楼层 |阅读模式

公民凯恩 Citizen.Kane.1941.1080p.BluRay.REMUX.AVC.DTS-HD.MA.1.0-FGT 27.02GB

公民凯恩 Citizen.Kane.1941.1080p.BluRay.REMUX.AVC.DTS-HD.MA.1.0-FGT 27.02GB


译  名 公民凯恩 / 大国民(港 / 台)
片  名 Citizen Kane
年  代 1941
产  地 美国
类  别 剧情 / 悬疑
语  言 英语 / 意大利语
上映日期 1941-09-05(美国)
豆瓣评分 8.8/10 (101171人评价)
片  长 119 分钟
导  演 奥逊·威尔斯 Orson Welles
编  剧 赫尔曼·J·曼凯维奇 Herman J. Mankiewicz
       奥逊·威尔斯 Orson Welles
演  员 奥逊·威尔斯 Orson Welles
       约瑟夫·科顿 Joseph Cotten
       多萝西·康明戈尔 Dorothy Comingore
       阿格妮丝·摩尔海德 Agnes Moorehead
       雷·柯林斯 Ray Collins
       鲁斯·沃里克 Ruth Warrick
       哈里·香农 Harry Shannon
       伯纳德·赫尔曼 Bernard Herrmann
       格雷格·托兰德 Gregg Toland
       罗伯特·怀斯 Robert Wise

简  介

美国报业大亨凯恩(奥森?韦尔斯)在桑拿都庄园中留下“玫瑰花蕾”的“遗言”死去后,一位青年记者受媒体的委托调查这四个字的含义,遂即,他走访了凯恩生前的同事好友,从报社董事长伯恩斯坦的口中,了解到凯恩的发迹历程以及如何制造舆论使美国卷入1897年的战争中的往事,从利兰的讲述中,凯恩与美国总统的侄女爱米丽的婚姻、与第二任妻子(歌手)苏珊的复杂关系及在总统竞选中的失败等等也被他一一所知。                                    
                                听过大量的讲述后,该记者又去图书馆查阅了有关凯恩的详尽资料,凯恩更多的一面,青年时代的经历及与母亲的关系也被他知晓,然而,“玫瑰花蕾”四字的含义,他仍不得而知。


获奖情况 (共9项)

第14届奥斯卡金像奖 (1942)
  最佳影片(提名)
  最佳导演(提名)
   └──奥逊·威尔斯
  最佳男主角(提名)
   └──奥逊·威尔斯
  最佳原创剧本
  黑白片最佳摄影(提名)
   └──格雷格·托兰德
  最佳剪辑(提名)
   └──罗伯特·怀斯
  最佳录音(提名)
   └──约翰·奥尔堡
  黑白片最佳艺术指导和室内布景(提名)
  剧情片最佳配乐(提名)
   └──伯纳德·荷曼


影片参数
  1. Video
  2. ID                                       : 1
  3. ID in the original source medium         : 4113 (0x1011)
  4. Format                                   : AVC
  5. Format/Info                              : Advanced Video Codec
  6. Format profile                           : [email protected]
  7. Format settings                          : CABAC / 2 Ref Frames
  8. Format settings, CABAC                   : Yes
  9. Format settings, Reference frames        : 2 frames
  10. Codec ID                                 : V_MPEG4/ISO/AVC
  11. Duration                                 : 1 h 59 min
  12. Bit rate mode                            : Variable
  13. Bit rate                                 : 30.7 Mb/s
  14. Width                                    : 1 920 pixels
  15. Height                                   : 1 080 pixels
  16. Display aspect ratio                     : 16:9
  17. Frame rate mode                          : Constant
  18. Frame rate                               : 23.976 (24000/1001/189150) FPS
  19. Color space                              : YUV
  20. Chroma subsampling                       : 4:2:0
  21. Bit depth                                : 8 bits
  22. Scan type                                : Progressive
  23. Bits/(Pixel*Frame)                       : 0.617
  24. Stream size                              : 25.6 GiB (95%)
  25. Language                                 : English
  26. Default                                  : No
  27. Forced                                   : No
  28. Original source medium                   : Blu-ray
  29. Audio #1
  30. ID                                       : 2
  31. ID in the original source medium         : 4352 (0x1100)
  32. Format                                   : DTS XLL
  33. Format/Info                              : Digital Theater Systems
  34. Commercial name                          : DTS-HD Master Audio
  35. Codec ID                                 : A_DTS
  36. Duration                                 : 1 h 59 min
  37. Bit rate mode                            : Variable
  38. Bit rate                                 : 821 kb/s
  39. Channel(s)                               : 1 channel
  40. Channel layout                           : C
  41. Sampling rate                            : 48.0 kHz
  42. Frame rate                               : 93.750 FPS (512 SPF)
  43. Bit depth                                : 24 bits
  44. Compression mode                         : Lossless
  45. Stream size                              : 701 MiB (3%)
  46. Title                                    : DTS-HD MA 1.0
  47. Language                                 : English
  48. Default                                  : Yes
  49. Forced                                   : No
  50. Original source medium                   : Blu-ray
  51. Audio #2
  52. ID                                       : 3
  53. ID in the original source medium         : 4353 (0x1101)
  54. Format                                   : AC-3
  55. Format/Info                              : Audio Coding 3
  56. Commercial name                          : Dolby Digital
  57. Codec ID                                 : A_AC3
  58. Duration                                 : 1 h 59 min
  59. Bit rate mode                            : Constant
  60. Bit rate                                 : 192 kb/s
  61. Channel(s)                               : 1 channel
  62. Channel layout                           : C
  63. Sampling rate                            : 48.0 kHz
  64. Frame rate                               : 31.250 FPS (1536 SPF)
  65. Compression mode                         : Lossy
  66. Stream size                              : 164 MiB (0%)
  67. Title                                    : DD 1.0
  68. Language                                 : Portuguese
  69. Service kind                             : Complete Main
  70. Default                                  : No
  71. Forced                                   : No
  72. Original source medium                   : Blu-ray
  73. Audio #3
  74. ID                                       : 4
  75. ID in the original source medium         : 4354 (0x1102)
  76. Format                                   : AC-3
  77. Format/Info                              : Audio Coding 3
  78. Commercial name                          : Dolby Digital
  79. Codec ID                                 : A_AC3
  80. Duration                                 : 1 h 59 min
  81. Bit rate mode                            : Constant
  82. Bit rate                                 : 192 kb/s
  83. Channel(s)                               : 1 channel
  84. Channel layout                           : C
  85. Sampling rate                            : 48.0 kHz
  86. Frame rate                               : 31.250 FPS (1536 SPF)
  87. Compression mode                         : Lossy
  88. Stream size                              : 164 MiB (0%)
  89. Title                                    : DD 1.0
  90. Language                                 : Polish
  91. Service kind                             : Complete Main
  92. Default                                  : No
  93. Forced                                   : No
  94. Original source medium                   : Blu-ray
  95. Audio #4
  96. ID                                       : 5
  97. ID in the original source medium         : 4355 (0x1103)
  98. Format                                   : AC-3
  99. Format/Info                              : Audio Coding 3
  100. Commercial name                          : Dolby Digital
  101. Codec ID                                 : A_AC3
  102. Duration                                 : 1 h 59 min
  103. Bit rate mode                            : Constant
  104. Bit rate                                 : 192 kb/s
  105. Channel(s)                               : 1 channel
  106. Channel layout                           : C
  107. Sampling rate                            : 48.0 kHz
  108. Frame rate                               : 31.250 FPS (1536 SPF)
  109. Compression mode                         : Lossy
  110. Stream size                              : 164 MiB (0%)
  111. Title                                    : DD 1.0
  112. Language                                 : English
  113. Service kind                             : Complete Main
  114. Default                                  : No
  115. Forced                                   : No
  116. Original source medium                   : Blu-ray
  117. Audio #5
  118. ID                                       : 6
  119. ID in the original source medium         : 4356 (0x1104)
  120. Format                                   : AC-3
  121. Format/Info                              : Audio Coding 3
  122. Commercial name                          : Dolby Digital
  123. Codec ID                                 : A_AC3
  124. Duration                                 : 1 h 59 min
  125. Bit rate mode                            : Constant
  126. Bit rate                                 : 192 kb/s
  127. Channel(s)                               : 1 channel
  128. Channel layout                           : C
  129. Sampling rate                            : 48.0 kHz
  130. Frame rate                               : 31.250 FPS (1536 SPF)
  131. Compression mode                         : Lossy
  132. Stream size                              : 164 MiB (0%)
  133. Title                                    : DD 1.0
  134. Language                                 : English
  135. Service kind                             : Complete Main
  136. Default                                  : No
  137. Forced                                   : No
  138. Original source medium                   : Blu-ray
  139. Text #1
  140. ID                                       : 7
  141. Format                                   : UTF-8
  142. Codec ID                                 : S_TEXT/UTF8
  143. Codec ID/Info                            : UTF-8 Plain Text
  144. Duration                                 : 1 h 55 min
  145. Bit rate                                 : 74 b/s
  146. Count of elements                        : 1491
  147. Stream size                              : 63.1 KiB (0%)
  148. Language                                 : English
  149. Default                                  : Yes
  150. Forced                                   : No
  151. Text #2
  152. ID                                       : 8
  153. Format                                   : UTF-8
  154. Codec ID                                 : S_TEXT/UTF8
  155. Codec ID/Info                            : UTF-8 Plain Text
  156. Duration                                 : 1 h 56 min
  157. Bit rate                                 : 76 b/s
  158. Count of elements                        : 1587
  159. Stream size                              : 64.7 KiB (0%)
  160. Title                                    : SDH
  161. Language                                 : English
  162. Default                                  : No
  163. Forced                                   : No
  164. Text #3
  165. ID                                       : 9
  166. ID in the original source medium         : 4608 (0x1200)
  167. Format                                   : PGS
  168. Muxing mode                              : zlib
  169. Codec ID                                 : S_HDMV/PGS
  170. Codec ID/Info                            : Picture based subtitle format used on BDs/HD-DVDs
  171. Duration                                 : 1 h 56 min
  172. Bit rate                                 : 44.5 kb/s
  173. Count of elements                        : 3222
  174. Stream size                              : 37.2 MiB (0%)
  175. Language                                 : English
  176. Default                                  : No
  177. Forced                                   : No
  178. Original source medium                   : Blu-ray
  179. Text #4
  180. ID                                       : 10
  181. ID in the original source medium         : 4609 (0x1201)
  182. Format                                   : PGS
  183. Muxing mode                              : zlib
  184. Codec ID                                 : S_HDMV/PGS
  185. Codec ID/Info                            : Picture based subtitle format used on BDs/HD-DVDs
  186. Duration                                 : 1 h 58 min
  187. Bit rate                                 : 30.8 kb/s
  188. Count of elements                        : 2778
  189. Stream size                              : 26.2 MiB (0%)
  190. Language                                 : French
  191. Default                                  : No
  192. Forced                                   : No
  193. Original source medium                   : Blu-ray
  194. Text #5
  195. ID                                       : 11
  196. ID in the original source medium         : 4610 (0x1202)
  197. Format                                   : PGS
  198. Muxing mode                              : zlib
  199. Codec ID                                 : S_HDMV/PGS
  200. Codec ID/Info                            : Picture based subtitle format used on BDs/HD-DVDs
  201. Duration                                 : 1 h 58 min
  202. Bit rate                                 : 42.7 kb/s
  203. Count of elements                        : 3032
  204. Stream size                              : 36.4 MiB (0%)
  205. Language                                 : Spanish
  206. Default                                  : No
  207. Forced                                   : No
  208. Original source medium                   : Blu-ray
  209. Text #6
  210. ID                                       : 12
  211. ID in the original source medium         : 4611 (0x1203)
  212. Format                                   : PGS
  213. Muxing mode                              : zlib
  214. Codec ID                                 : S_HDMV/PGS
  215. Codec ID/Info                            : Picture based subtitle format used on BDs/HD-DVDs
  216. Duration                                 : 1 h 58 min
  217. Bit rate                                 : 38.9 kb/s
  218. Count of elements                        : 3070
  219. Stream size                              : 33.1 MiB (0%)
  220. Language                                 : Portuguese
  221. Default                                  : No
  222. Forced                                   : No
  223. Original source medium                   : Blu-ray
  224. Text #7
  225. ID                                       : 13
  226. ID in the original source medium         : 4612 (0x1204)
  227. Format                                   : PGS
  228. Muxing mode                              : zlib
  229. Codec ID                                 : S_HDMV/PGS
  230. Codec ID/Info                            : Picture based subtitle format used on BDs/HD-DVDs
  231. Duration                                 : 1 h 58 min
  232. Bit rate                                 : 39.8 kb/s
  233. Count of elements                        : 3084
  234. Stream size                              : 33.9 MiB (0%)
  235. Language                                 : Czech
  236. Default                                  : No
  237. Forced                                   : No
  238. Original source medium                   : Blu-ray
  239. Text #8
  240. ID                                       : 14
  241. ID in the original source medium         : 4613 (0x1205)
  242. Format                                   : PGS
  243. Muxing mode                              : zlib
  244. Codec ID                                 : S_HDMV/PGS
  245. Codec ID/Info                            : Picture based subtitle format used on BDs/HD-DVDs
  246. Duration                                 : 1 h 58 min
  247. Bit rate                                 : 37.2 kb/s
  248. Count of elements                        : 3034
  249. Stream size                              : 31.6 MiB (0%)
  250. Language                                 : Greek
  251. Default                                  : No
  252. Forced                                   : No
  253. Original source medium                   : Blu-ray
  254. Text #9
  255. ID                                       : 15
  256. ID in the original source medium         : 4614 (0x1206)
  257. Format                                   : PGS
  258. Muxing mode                              : zlib
  259. Codec ID                                 : S_HDMV/PGS
  260. Codec ID/Info                            : Picture based subtitle format used on BDs/HD-DVDs
  261. Duration                                 : 1 h 58 min
  262. Bit rate                                 : 38.8 kb/s
  263. Count of elements                        : 3042
  264. Stream size                              : 33.0 MiB (0%)
  265. Language                                 : Hungarian
  266. Default                                  : No
  267. Forced                                   : No
  268. Original source medium                   : Blu-ray
  269. Text #10
  270. ID                                       : 16
  271. ID in the original source medium         : 4615 (0x1207)
  272. Format                                   : PGS
  273. Muxing mode                              : zlib
  274. Codec ID                                 : S_HDMV/PGS
  275. Codec ID/Info                            : Picture based subtitle format used on BDs/HD-DVDs
  276. Duration                                 : 1 h 58 min
  277. Bit rate                                 : 37.9 kb/s
  278. Count of elements                        : 3080
  279. Stream size                              : 32.2 MiB (0%)
  280. Language                                 : Polish
  281. Default                                  : No
  282. Forced                                   : No
  283. Original source medium                   : Blu-ray
  284. Text #11
  285. ID                                       : 17
  286. ID in the original source medium         : 4616 (0x1208)
  287. Format                                   : PGS
  288. Muxing mode                              : zlib
  289. Codec ID                                 : S_HDMV/PGS
  290. Codec ID/Info                            : Picture based subtitle format used on BDs/HD-DVDs
  291. Duration                                 : 1 h 58 min
  292. Bit rate                                 : 40.8 kb/s
  293. Count of elements                        : 3088
  294. Stream size                              : 34.7 MiB (0%)
  295. Language                                 : Romanian
  296. Default                                  : No
  297. Forced                                   : No
  298. Original source medium                   : Blu-ray
  299. Menu
  300. 00:00:00.000                             : en:Chapter 01
  301. 00:03:11.482                             : en:Chapter 02
  302. 00:12:30.040                             : en:Chapter 03
  303. 00:14:22.695                             : en:Chapter 04
  304. 00:17:18.037                             : en:Chapter 05
  305. 00:18:36.031                             : en:Chapter 06
  306. 00:22:55.332                             : en:Chapter 07
  307. 00:27:14.257                             : en:Chapter 08
  308. 00:29:49.829                             : en:Chapter 09
  309. 00:32:22.315                             : en:Chapter 10
  310. 00:37:23.866                             : en:Chapter 11
  311. 00:39:49.804                             : en:Chapter 12
  312. 00:45:09.373                             : en:Chapter 13
  313. 00:49:25.879                             : en:Chapter 14
  314. 00:55:09.681                             : en:Chapter 15
  315. 01:00:36.507                             : en:Chapter 16
  316. 01:03:44.862                             : en:Chapter 17
  317. 01:10:48.494                             : en:Chapter 18
  318. 01:15:27.606                             : en:Chapter 19
  319. 01:17:35.567                             : en:Chapter 20
  320. 01:22:51.633                             : en:Chapter 21
  321. 01:25:16.111                             : en:Chapter 22
  322. 01:29:07.508                             : en:Chapter 23
  323. 01:32:29.252                             : en:Chapter 24
  324. 01:38:19.435                             : en:Chapter 25
  325. 01:40:40.159                             : en:Chapter 26
  326. 01:43:45.177                             : en:Chapter 27
  327. 01:47:06.503                             : en:Chapter 28
  328. 01:51:28.181                             : en:Chapter 29
  329. 01:54:49.424                             : en:Chapter 30
  330. 01:57:12.442                             : en:Chapter 31
复制代码

公民凯恩 Citizen.Kane.1941.1080p.BluRay.REMUX.AVC.DTS-HD.MA.1.0-FGT 27.02GB

公民凯恩 Citizen.Kane.1941.1080p.BluRay.REMUX.AVC.DTS-HD.MA.1.0-FGT 27.02GB

公民凯恩 Citizen.Kane.1941.1080p.BluRay.REMUX.AVC.DTS-HD.MA.1.0-FGT 27.02GB

公民凯恩 Citizen.Kane.1941.1080p.BluRay.REMUX.AVC.DTS-HD.MA.1.0-FGT 27.02GB



4K321提示您 点击下方附件即可下载

公民凯恩 Citizen.Kane.1941.1080p.BluRay.REMUX.AVC.DTS-HD.MA.1.0-FGT 27.02GB

Citizen.Kane.1941.1080p.BluRay.REMUX.AVC.DTS-HD.MA.1.0-FGT.torrent ( 34.42 KB )

回复

使用道具 举报

全部回复0 显示全部楼层

声明:您在社区发表的所有信息仅代表用户个人观点,与本网站立场无关,希望各位烧友理性发言,不发表违法国家法律禁止的话题。

您需要登录后才可以回帖 登录 | 立即注册

本版积分规则

联系客服 关注微信 下载APP 返回顶部 返回列表