开启左侧

[科幻片] 月球陨落 Moonfall.2022.1080p.BluRay.REMUX.AVC.DTS-HD.MA.TrueHD.7.1.Atmos-FGT 33.54GB

蓝鸟 发表于 2022-6-2 21:31:50 | 显示全部楼层 |阅读模式

月球陨落 Moonfall.2022.1080p.BluRay.REMUX.AVC.DTS-HD.MA.TrueHD.7.1.Atmos-FGT 33.54GB

月球陨落 Moonfall.2022.1080p.BluRay.REMUX.AVC.DTS-HD.MA.TrueHD.7.1.Atmos-FGT 33.54GB


译  名 月球陨落 / 月球坠落
片  名 Moonfall
年  代 2022
产  地 美国 / 中国大陆 / 英国
类  别 科幻 / 灾难
语  言 英语 / 汉语普通话
上映日期 2022-03-25(中国大陆) / 2022-02-04(美国)
豆瓣评分 5.4/10 (61821人评价)
片  长 130分钟
导  演 罗兰·艾默里奇 Roland Emmerich
编  剧 罗兰·艾默里奇 Roland Emmerich
       哈洛德·克卢瑟 Harald Kloser
       斯宾塞·科恩 Spenser Cohen
演  员 哈莉·贝瑞 Halle Berry
       帕特里克·威尔森 Patrick Wilson
       约翰·布莱德利 John Bradley
       于文文 Kelly Yu
       迈克尔·佩纳 Michael Pe?a
       唐纳德·萨瑟兰 Donald Sutherland
       查理·普拉默 Charlie Plummer
       艾米·伊库瓦克 Eme Ikwuakor  
       卡罗林纳·巴特察克 Carolina Bartczak
       马克西姆·罗伊 Maxim Roy
       斯蒂夫·博加尔特 Stephen Bogaert
       蒂龙·本斯金 Tyrone Benskin
       乔什·克鲁达斯 Josh Cruddas
       凯蒂·布赖尔 Katy Breier
       克里斯·桑迪福德 Chris Sandiford
       兰迪·托马斯 Randy Thomas
       克里什陶·马尔尚 Krista Marchand
       泰勒·艾略特·伯克 Tyler Elliot Burke
       娜塔莉·希波蒂 Nathaly Thibault
       贾·史密斯-约翰逊 Jaa Smith-Johnson
       史蒂文·皮奥维森 Steven Piovesan
       大卫·泰勒 David Tyler
       罗兰·艾默里奇 Roland Emmerich
       王中军 Zhongjun Wang
       王中磊 Zhonglei Wang
       马里奥·达维尼翁 Mario Davignon
       费利克斯·安托万·杜瓦尔 Félix-Antoine Duval

简  介

月球开始偏离轨道,离撞上地球的时间线越来越近,危机时刻,美国国防部提出使用核弹,来让月球重新回到正常轨道。但“假冒博士”(约翰·布莱德利饰)发现,月球内部是空的,显然是有外星文明在操控着月球的轨迹。这个计划逐渐被两位宇航员(帕特里克·威尔森和哈莉·贝瑞饰)接受,但前者因为多年前的一起太空事故,已被美国国家航空航天局开除,关键时刻,已经升为负责人的后者拍板,决定用一台被废弃在博物馆中的航天飞船再次升空飞往月球,借助前者超强的驾驶经验,深入月球地心完成任务。


影片参数
  1. Video
  2. ID                                       : 1
  3. ID in the original source medium         : 4113 (0x1011)
  4. Format                                   : AVC
  5. Format/Info                              : Advanced Video Codec
  6. Format profile                           : [email protected]
  7. Format settings                          : CABAC / 4 Ref Frames
  8. Format settings, CABAC                   : Yes
  9. Format settings, Reference frames        : 4 frames
  10. Codec ID                                 : V_MPEG4/ISO/AVC
  11. Duration                                 : 2 h 10 min
  12. Bit rate mode                            : Variable
  13. Bit rate                                 : 25.5 Mb/s
  14. Maximum bit rate                         : 36.3 Mb/s
  15. Width                                    : 1 920 pixels
  16. Height                                   : 1 080 pixels
  17. Display aspect ratio                     : 16:9
  18. Frame rate mode                          : Constant
  19. Frame rate                               : 23.976 (24000/1001/189150) FPS
  20. Color space                              : YUV
  21. Chroma subsampling                       : 4:2:0
  22. Bit depth                                : 8 bits
  23. Scan type                                : Progressive
  24. Bits/(Pixel*Frame)                       : 0.512
  25. Stream size                              : 23.2 GiB (69%)
  26. Language                                 : English
  27. Default                                  : No
  28. Forced                                   : No
  29. Original source medium                   : Blu-ray
  30. Audio #1
  31. ID                                       : 2
  32. ID in the original source medium         : 4352 (0x1100)
  33. Format                                   : MLP FBA 16-ch
  34. Format/Info                              : Meridian Lossless Packing FBA with 16-channel presentation
  35. Commercial name                          : Dolby TrueHD with Dolby Atmos
  36. Codec ID                                 : A_TRUEHD
  37. Duration                                 : 2 h 10 min
  38. Bit rate mode                            : Variable
  39. Bit rate                                 : 4 704 kb/s
  40. Maximum bit rate                         : 8 046 kb/s
  41. Channel(s)                               : 8 channels
  42. Channel layout                           : L R C LFE Ls Rs Lb Rb
  43. Sampling rate                            : 48.0 kHz
  44. Frame rate                               : 1 200.000 FPS (40 SPF)
  45. Bit depth                                : 24 bits
  46. Compression mode                         : Lossless
  47. Stream size                              : 4.28 GiB (13%)
  48. Title                                    : TrueHD 7.1 Atmos
  49. Language                                 : English
  50. Default                                  : Yes
  51. Forced                                   : No
  52. Original source medium                   : Blu-ray
  53. Number of dynamic objects                : 11
  54. Bed channel count                        : 1 channel
  55. Bed channel configuration                : LFE
  56. Audio #2
  57. ID                                       : 3
  58. Format                                   : DTS XLL
  59. Format/Info                              : Digital Theater Systems
  60. Commercial name                          : DTS-HD Master Audio
  61. Codec ID                                 : A_DTS
  62. Duration                                 : 2 h 10 min
  63. Bit rate mode                            : Variable
  64. Bit rate                                 : 4 257 kb/s
  65. Channel(s)                               : 8 channels
  66. Channel layout                           : C L R LFE Lb Rb Lss Rss
  67. Sampling rate                            : 48.0 kHz
  68. Frame rate                               : 93.750 FPS (512 SPF)
  69. Bit depth                                : 24 bits
  70. Compression mode                         : Lossless
  71. Stream size                              : 3.87 GiB (12%)
  72. Title                                    : DTS-HD MA 7.1
  73. Language                                 : English
  74. Default                                  : No
  75. Forced                                   : No
  76. Audio #3
  77. ID                                       : 4
  78. ID in the original source medium         : 4352 (0x1100)
  79. Format                                   : AC-3
  80. Format/Info                              : Audio Coding 3
  81. Commercial name                          : Dolby Digital
  82. Format settings                          : Dolby Surround EX
  83. Codec ID                                 : A_AC3
  84. Duration                                 : 2 h 10 min
  85. Bit rate mode                            : Constant
  86. Bit rate                                 : 640 kb/s
  87. Channel(s)                               : 6 channels
  88. Channel layout                           : L R C LFE Ls Rs
  89. Sampling rate                            : 48.0 kHz
  90. Frame rate                               : 31.250 FPS (1536 SPF)
  91. Compression mode                         : Lossy
  92. Stream size                              : 596 MiB (2%)
  93. Title                                    : DD 5.1
  94. Language                                 : English
  95. Service kind                             : Complete Main
  96. Default                                  : No
  97. Forced                                   : No
  98. Original source medium                   : Blu-ray
  99. Audio #4
  100. ID                                       : 5
  101. ID in the original source medium         : 4353 (0x1101)
  102. Format                                   : AC-3
  103. Format/Info                              : Audio Coding 3
  104. Commercial name                          : Dolby Digital
  105. Codec ID                                 : A_AC3
  106. Duration                                 : 2 h 10 min
  107. Bit rate mode                            : Constant
  108. Bit rate                                 : 192 kb/s
  109. Channel(s)                               : 2 channels
  110. Channel layout                           : L R
  111. Sampling rate                            : 48.0 kHz
  112. Frame rate                               : 31.250 FPS (1536 SPF)
  113. Compression mode                         : Lossy
  114. Stream size                              : 179 MiB (0%)
  115. Title                                    : DD 2.0
  116. Language                                 : English
  117. Service kind                             : Complete Main
  118. Default                                  : No
  119. Forced                                   : No
  120. Original source medium                   : Blu-ray
  121. Audio #5
  122. ID                                       : 6
  123. ID in the original source medium         : 4354 (0x1102)
  124. Format                                   : AC-3
  125. Format/Info                              : Audio Coding 3
  126. Commercial name                          : Dolby Digital
  127. Codec ID                                 : A_AC3
  128. Duration                                 : 2 h 10 min
  129. Bit rate mode                            : Constant
  130. Bit rate                                 : 640 kb/s
  131. Channel(s)                               : 6 channels
  132. Channel layout                           : L R C LFE Ls Rs
  133. Sampling rate                            : 48.0 kHz
  134. Frame rate                               : 31.250 FPS (1536 SPF)
  135. Compression mode                         : Lossy
  136. Stream size                              : 596 MiB (2%)
  137. Title                                    : DD 5.1
  138. Language                                 : French
  139. Service kind                             : Complete Main
  140. Default                                  : No
  141. Forced                                   : No
  142. Original source medium                   : Blu-ray
  143. Audio #6
  144. ID                                       : 7
  145. ID in the original source medium         : 4355 (0x1103)
  146. Format                                   : AC-3
  147. Format/Info                              : Audio Coding 3
  148. Commercial name                          : Dolby Digital
  149. Codec ID                                 : A_AC3
  150. Duration                                 : 2 h 10 min
  151. Bit rate mode                            : Constant
  152. Bit rate                                 : 640 kb/s
  153. Channel(s)                               : 6 channels
  154. Channel layout                           : L R C LFE Ls Rs
  155. Sampling rate                            : 48.0 kHz
  156. Frame rate                               : 31.250 FPS (1536 SPF)
  157. Compression mode                         : Lossy
  158. Stream size                              : 596 MiB (2%)
  159. Title                                    : DD 5.1
  160. Language                                 : Spanish
  161. Service kind                             : Complete Main
  162. Default                                  : No
  163. Forced                                   : No
  164. Original source medium                   : Blu-ray
  165. Audio #7
  166. ID                                       : 8
  167. ID in the original source medium         : 4356 (0x1104)
  168. Format                                   : AC-3
  169. Format/Info                              : Audio Coding 3
  170. Commercial name                          : Dolby Digital
  171. Codec ID                                 : A_AC3
  172. Duration                                 : 2 h 10 min
  173. Bit rate mode                            : Constant
  174. Bit rate                                 : 192 kb/s
  175. Channel(s)                               : 2 channels
  176. Channel layout                           : L R
  177. Sampling rate                            : 48.0 kHz
  178. Frame rate                               : 31.250 FPS (1536 SPF)
  179. Compression mode                         : Lossy
  180. Stream size                              : 179 MiB (0%)
  181. Title                                    : DD 2.0 - COMMENTARY
  182. Language                                 : English
  183. Service kind                             : Complete Main
  184. Default                                  : No
  185. Forced                                   : No
  186. Original source medium                   : Blu-ray
  187. Text #1
  188. ID                                       : 9
  189. Format                                   : UTF-8
  190. Codec ID                                 : S_TEXT/UTF8
  191. Codec ID/Info                            : UTF-8 Plain Text
  192. Duration                                 : 2 h 0 min
  193. Bit rate                                 : 65 b/s
  194. Count of elements                        : 1734
  195. Stream size                              : 57.6 KiB (0%)
  196. Language                                 : English
  197. Default                                  : Yes
  198. Forced                                   : No
  199. Text #2
  200. ID                                       : 10
  201. Format                                   : UTF-8
  202. Codec ID                                 : S_TEXT/UTF8
  203. Codec ID/Info                            : UTF-8 Plain Text
  204. Duration                                 : 2 h 0 min
  205. Bit rate                                 : 72 b/s
  206. Count of elements                        : 2016
  207. Stream size                              : 64.1 KiB (0%)
  208. Title                                    : SDH
  209. Language                                 : English
  210. Default                                  : No
  211. Forced                                   : No
  212. Text #3
  213. ID                                       : 11
  214. ID in the original source medium         : 4608 (0x1200)
  215. Format                                   : PGS
  216. Muxing mode                              : zlib
  217. Codec ID                                 : S_HDMV/PGS
  218. Codec ID/Info                            : Picture based subtitle format used on BDs/HD-DVDs
  219. Duration                                 : 2 h 0 min
  220. Bit rate                                 : 42.1 kb/s
  221. Count of elements                        : 4052
  222. Stream size                              : 36.4 MiB (0%)
  223. Language                                 : English
  224. Default                                  : No
  225. Forced                                   : No
  226. Original source medium                   : Blu-ray
  227. Text #4
  228. ID                                       : 12
  229. ID in the original source medium         : 4609 (0x1201)
  230. Format                                   : PGS
  231. Muxing mode                              : zlib
  232. Codec ID                                 : S_HDMV/PGS
  233. Codec ID/Info                            : Picture based subtitle format used on BDs/HD-DVDs
  234. Duration                                 : 2 h 0 min
  235. Bit rate                                 : 32.1 kb/s
  236. Count of elements                        : 3396
  237. Stream size                              : 27.7 MiB (0%)
  238. Language                                 : Spanish
  239. Default                                  : No
  240. Forced                                   : No
  241. Original source medium                   : Blu-ray
  242. Text #5
  243. ID                                       : 13
  244. ID in the original source medium         : 4610 (0x1202)
  245. Format                                   : PGS
  246. Muxing mode                              : zlib
  247. Codec ID                                 : S_HDMV/PGS
  248. Codec ID/Info                            : Picture based subtitle format used on BDs/HD-DVDs
  249. Duration                                 : 2 h 0 min
  250. Bit rate                                 : 34.7 kb/s
  251. Count of elements                        : 3354
  252. Stream size                              : 30.0 MiB (0%)
  253. Title                                    : COMMENTARY
  254. Language                                 : English
  255. Default                                  : No
  256. Forced                                   : No
  257. Original source medium                   : Blu-ray
  258. Text #6
  259. ID                                       : 14
  260. ID in the original source medium         : 4611 (0x1203)
  261. Format                                   : PGS
  262. Muxing mode                              : zlib
  263. Codec ID                                 : S_HDMV/PGS
  264. Codec ID/Info                            : Picture based subtitle format used on BDs/HD-DVDs
  265. Duration                                 : 2 h 10 min
  266. Bit rate                                 : 35.1 kb/s
  267. Count of elements                        : 3552
  268. Stream size                              : 32.6 MiB (0%)
  269. Title                                    : COMMENTARY
  270. Language                                 : French
  271. Default                                  : No
  272. Forced                                   : No
  273. Original source medium                   : Blu-ray
  274. Menu
  275. 00:00:00.000                             : en:Chapter 01
  276. 00:05:58.024                             : en:Chapter 02
  277. 00:13:28.057                             : en:Chapter 03
  278. 00:21:14.564                             : en:Chapter 04
  279. 00:30:58.940                             : en:Chapter 05
  280. 00:38:36.856                             : en:Chapter 06
  281. 00:47:33.725                             : en:Chapter 07
  282. 00:55:51.848                             : en:Chapter 08
  283. 01:03:39.816                             : en:Chapter 09
  284. 01:10:14.710                             : en:Chapter 10
  285. 01:15:38.534                             : en:Chapter 11
  286. 01:22:37.369                             : en:Chapter 12
  287. 01:30:10.863                             : en:Chapter 13
  288. 01:35:47.783                             : en:Chapter 14
  289. 01:45:09.177                             : en:Chapter 15
  290. 01:56:22.976                             : en:Chapter 16
复制代码

月球陨落 Moonfall.2022.1080p.BluRay.REMUX.AVC.DTS-HD.MA.TrueHD.7.1.Atmos-FGT 33.54GB

月球陨落 Moonfall.2022.1080p.BluRay.REMUX.AVC.DTS-HD.MA.TrueHD.7.1.Atmos-FGT 33.54GB

月球陨落 Moonfall.2022.1080p.BluRay.REMUX.AVC.DTS-HD.MA.TrueHD.7.1.Atmos-FGT 33.54GB

月球陨落 Moonfall.2022.1080p.BluRay.REMUX.AVC.DTS-HD.MA.TrueHD.7.1.Atmos-FGT 33.54GB



4K321提示您 点击下方附件即可下载

月球陨落 Moonfall.2022.1080p.BluRay.REMUX.AVC.DTS-HD.MA.TrueHD.7.1.Atmos-FGT 33.54GB

Moonfall.2022.1080p.BluRay.REMUX.AVC.DTS-HD.MA.TrueHD.7.1.Atmos-FGT.torrent ( 42.58 KB )

回复

使用道具 举报

全部回复1 显示全部楼层
fsl432 发表于 2022-6-3 13:20:39 来自手机 | 显示全部楼层
骗了我16个k币!
回复 支持 反对

使用道具 举报

声明:您在社区发表的所有信息仅代表用户个人观点,与本网站立场无关,希望各位烧友理性发言,不发表违法国家法律禁止的话题。

您需要登录后才可以回帖 登录 | 立即注册

本版积分规则

联系客服 关注微信 下载APP 返回顶部 返回列表