开启左侧

[剧情片] 爱情事件 Love.Affair.1939.1080p.BluRay.REMUX.AVC.LPCM.1.0-FGT 22.67GB

蓝鸟 发表于 2022-6-2 21:27:12 | 显示全部楼层 |阅读模式

爱情事件 Love.Affair.1939.1080p.BluRay.REMUX.AVC.LPCM.1.0-FGT 22.67GB

爱情事件 Love.Affair.1939.1080p.BluRay.REMUX.AVC.LPCM.1.0-FGT 22.67GB


译  名 爱情事件 / 暧昧关系 / 缘份的天空 / 风流韵事
片  名 Love Affair
年  代 1939
产  地 美国
类  别 剧情 / 喜剧 / 爱情
语  言 英语 / 法语
上映日期 1939-03-16
豆瓣评分 7.7/10 (220人评价)
片  长 88 分钟
导  演 莱奥·麦卡雷 Leo McCarey
编  剧 德尔默·戴夫斯 Delmer Daves
演  员 艾琳·邓恩 Irene Dunne
       查尔斯·博耶 Charles Boyer


获奖情况 (共6项)

第12届奥斯卡金像奖 (1940)
  最佳影片(提名)
  最佳女主角(提名)
   └──艾琳·邓恩
  最佳女配角(提名)
   └──玛丽亚·彭斯卡娅
  最佳原创故事(提名)
  最佳艺术指导(提名)
  最佳原创歌曲(提名)
   └──巴迪·G·德席尔瓦


影片参数
  1. Video
  2. ID                                       : 1
  3. ID in the original source medium         : 4113 (0x1011)
  4. Format                                   : AVC
  5. Format/Info                              : Advanced Video Codec
  6. Format profile                           : [email protected]
  7. Format settings                          : CABAC / 4 Ref Frames
  8. Format settings, CABAC                   : Yes
  9. Format settings, Reference frames        : 4 frames
  10. Codec ID                                 : V_MPEG4/ISO/AVC
  11. Duration                                 : 1 h 29 min
  12. Bit rate mode                            : Variable
  13. Bit rate                                 : 35.2 Mb/s
  14. Maximum bit rate                         : 37.0 Mb/s
  15. Width                                    : 1 920 pixels
  16. Height                                   : 1 080 pixels
  17. Display aspect ratio                     : 16:9
  18. Frame rate mode                          : Constant
  19. Frame rate                               : 23.976 (24000/1001/189150) FPS
  20. Color space                              : YUV
  21. Chroma subsampling                       : 4:2:0
  22. Bit depth                                : 8 bits
  23. Scan type                                : Progressive
  24. Bits/(Pixel*Frame)                       : 0.708
  25. Stream size                              : 21.9 GiB (97%)
  26. Language                                 : English
  27. Default                                  : No
  28. Forced                                   : No
  29. Original source medium                   : Blu-ray
  30. Audio
  31. ID                                       : 2
  32. ID in the original source medium         : 4352 (0x1100)
  33. Format                                   : PCM
  34. Format settings                          : Little / Signed
  35. Codec ID                                 : A_PCM/INT/LIT
  36. Duration                                 : 1 h 29 min
  37. Bit rate mode                            : Constant
  38. Bit rate                                 : 1 152 kb/s
  39. Channel(s)                               : 1 channel
  40. Sampling rate                            : 48.0 kHz
  41. Frame rate                               : 30.000 FPS (1600 SPF)
  42. Bit depth                                : 24 bits
  43. Stream size                              : 735 MiB (3%)
  44. Title                                    : LPCM 1.0
  45. Language                                 : English
  46. Default                                  : Yes
  47. Forced                                   : No
  48. Original source medium                   : Blu-ray
  49. Text #1
  50. ID                                       : 3
  51. Format                                   : UTF-8
  52. Codec ID                                 : S_TEXT/UTF8
  53. Codec ID/Info                            : UTF-8 Plain Text
  54. Duration                                 : 1 h 25 min
  55. Bit rate                                 : 57 b/s
  56. Count of elements                        : 1079
  57. Stream size                              : 35.9 KiB (0%)
  58. Language                                 : English
  59. Default                                  : Yes
  60. Forced                                   : No
  61. Text #2
  62. ID                                       : 4
  63. Format                                   : UTF-8
  64. Codec ID                                 : S_TEXT/UTF8
  65. Codec ID/Info                            : UTF-8 Plain Text
  66. Duration                                 : 1 h 25 min
  67. Bit rate                                 : 62 b/s
  68. Count of elements                        : 1164
  69. Stream size                              : 39.1 KiB (0%)
  70. Title                                    : SDH
  71. Language                                 : English
  72. Default                                  : No
  73. Forced                                   : No
  74. Text #3
  75. ID                                       : 5
  76. ID in the original source medium         : 4608 (0x1200)
  77. Format                                   : PGS
  78. Muxing mode                              : zlib
  79. Codec ID                                 : S_HDMV/PGS
  80. Codec ID/Info                            : Picture based subtitle format used on BDs/HD-DVDs
  81. Duration                                 : 1 h 25 min
  82. Bit rate                                 : 51.9 kb/s
  83. Count of elements                        : 2364
  84. Stream size                              : 31.8 MiB (0%)
  85. Language                                 : English
  86. Default                                  : No
  87. Forced                                   : No
  88. Original source medium                   : Blu-ray
  89. Menu
  90. 00:00:00.000                             : en:Chapter 01
  91. 00:03:24.162                             : en:Chapter 02
  92. 00:11:32.233                             : en:Chapter 03
  93. 00:17:47.441                             : en:Chapter 04
  94. 00:33:38.766                             : en:Chapter 05
  95. 00:43:13.799                             : en:Chapter 06
  96. 00:49:58.328                             : en:Chapter 07
  97. 00:51:46.603                             : en:Chapter 08
  98. 00:58:56.950                             : en:Chapter 09
  99. 01:05:52.740                             : en:Chapter 10
  100. 01:11:52.766                             : en:Chapter 11
  101. 01:15:40.786                             : en:Chapter 12
复制代码



4K321提示您 点击下方附件即可下载

爱情事件 Love.Affair.1939.1080p.BluRay.REMUX.AVC.LPCM.1.0-FGT 22.67GB

Love.Affair.1939.1080p.BluRay.REMUX.AVC.LPCM.1.0-FGT.torrent ( 28.98 KB )

回复

使用道具 举报

全部回复0 显示全部楼层

声明:您在社区发表的所有信息仅代表用户个人观点,与本网站立场无关,希望各位烧友理性发言,不发表违法国家法律禁止的话题。

您需要登录后才可以回帖 登录 | 立即注册

本版积分规则

联系客服 关注微信 下载APP 返回顶部 返回列表