开启左侧

[剧情片] 小岛惊魂 Voices.1973.1080p.BluRay.REMUX.AVC.LPCM.1.0-FGT 24.34GB

蓝鸟 发表于 2022-6-2 21:26:06 | 显示全部楼层 |阅读模式

小岛惊魂 Voices.1973.1080p.BluRay.REMUX.AVC.LPCM.1.0-FGT 24.34GB

小岛惊魂 Voices.1973.1080p.BluRay.REMUX.AVC.LPCM.1.0-FGT 24.34GB


译  名 小岛惊魂 / 不速之吓
片  名 Voices
年  代 1973
产  地 英国
类  别 剧情 / 惊悚 / 恐怖
语  言 英语
上映日期 1973
片  长 91分钟
导  演 凯文·比林顿 Kevin Billington
编  剧 罗伯特·恩德斯 Robert Enders
       乔治·基尔戈 George Kirgo
演  员 盖尔·亨尼卡特 Gayle Hunnicutt
       琳恩·法利 Lynn Farleigh
       佩吉·安·克利福德 Peggy Ann Clifford
       戴维·海明斯 David Hemmings
       罗素·刘易斯 Russell Lewis
       罗伯特·恩德斯 Robert Enders
       戈登·斯科特 Gordon Scott
       理查德·罗德尼·本尼特 Richard Rodney Bennett
       杰弗里·昂斯沃思 Geoffrey Unsworth

简  介

After her young son accidentally drowns, a woman has a breakdown and is finally placed in a mental hospital. After her release, her husband takes her for a weekend at a secluded country mansion, hoping to help her recover. However, things at the mansion aren''t quite what they seem to be, the couple begin to feel an uneasy and oppressive presence, and the mother starts to see th...


影片参数
  1. Video
  2. ID                                       : 1
  3. ID in the original source medium         : 4113 (0x1011)
  4. Format                                   : AVC
  5. Format/Info                              : Advanced Video Codec
  6. Format profile                           : [email protected]
  7. Format settings                          : CABAC / 3 Ref Frames
  8. Format settings, CABAC                   : Yes
  9. Format settings, Reference frames        : 3 frames
  10. Codec ID                                 : V_MPEG4/ISO/AVC
  11. Duration                                 : 1 h 31 min
  12. Bit rate mode                            : Variable
  13. Bit rate                                 : 36.8 Mb/s
  14. Maximum bit rate                         : 38.0 Mb/s
  15. Width                                    : 1 920 pixels
  16. Height                                   : 1 080 pixels
  17. Display aspect ratio                     : 16:9
  18. Frame rate mode                          : Constant
  19. Frame rate                               : 23.976 (24000/1001/189150) FPS
  20. Color space                              : YUV
  21. Chroma subsampling                       : 4:2:0
  22. Bit depth                                : 8 bits
  23. Scan type                                : Progressive
  24. Bits/(Pixel*Frame)                       : 0.740
  25. Stream size                              : 23.5 GiB (96%)
  26. Language                                 : English
  27. Default                                  : No
  28. Forced                                   : No
  29. Color range                              : Limited
  30. Color primaries                          : BT.709
  31. Transfer characteristics                 : BT.709
  32. Matrix coefficients                      : BT.709
  33. Original source medium                   : Blu-ray
  34. Audio #1
  35. ID                                       : 2
  36. ID in the original source medium         : 4352 (0x1100)
  37. Format                                   : PCM
  38. Format settings                          : Little / Signed
  39. Codec ID                                 : A_PCM/INT/LIT
  40. Duration                                 : 1 h 31 min
  41. Bit rate mode                            : Constant
  42. Bit rate                                 : 1 152 kb/s
  43. Channel(s)                               : 1 channel
  44. Sampling rate                            : 48.0 kHz
  45. Frame rate                               : 30.000 FPS (1600 SPF)
  46. Bit depth                                : 24 bits
  47. Stream size                              : 752 MiB (3%)
  48. Title                                    : LPCM 1.0
  49. Language                                 : English
  50. Default                                  : Yes
  51. Forced                                   : No
  52. Original source medium                   : Blu-ray
  53. Audio #2
  54. ID                                       : 3
  55. ID in the original source medium         : 4353 (0x1101)
  56. Format                                   : AC-3
  57. Format/Info                              : Audio Coding 3
  58. Commercial name                          : Dolby Digital
  59. Codec ID                                 : A_AC3
  60. Duration                                 : 1 h 31 min
  61. Bit rate mode                            : Constant
  62. Bit rate                                 : 192 kb/s
  63. Channel(s)                               : 2 channels
  64. Channel layout                           : L R
  65. Sampling rate                            : 48.0 kHz
  66. Frame rate                               : 31.250 FPS (1536 SPF)
  67. Compression mode                         : Lossy
  68. Stream size                              : 125 MiB (0%)
  69. Title                                    : DD 2.0
  70. Language                                 : English
  71. Service kind                             : Complete Main
  72. Default                                  : No
  73. Forced                                   : No
  74. Original source medium                   : Blu-ray
  75. Text #1
  76. ID                                       : 4
  77. Format                                   : UTF-8
  78. Codec ID                                 : S_TEXT/UTF8
  79. Codec ID/Info                            : UTF-8 Plain Text
  80. Duration                                 : 1 h 30 min
  81. Bit rate                                 : 42 b/s
  82. Count of elements                        : 1012
  83. Stream size                              : 28.1 KiB (0%)
  84. Language                                 : English
  85. Default                                  : Yes
  86. Forced                                   : No
  87. Text #2
  88. ID                                       : 5
  89. Format                                   : UTF-8
  90. Codec ID                                 : S_TEXT/UTF8
  91. Codec ID/Info                            : UTF-8 Plain Text
  92. Duration                                 : 1 h 31 min
  93. Bit rate                                 : 44 b/s
  94. Count of elements                        : 1123
  95. Stream size                              : 30.0 KiB (0%)
  96. Title                                    : SDH
  97. Language                                 : English
  98. Default                                  : No
  99. Forced                                   : No
  100. Text #3
  101. ID                                       : 6
  102. ID in the original source medium         : 4608 (0x1200)
  103. Format                                   : PGS
  104. Muxing mode                              : zlib
  105. Codec ID                                 : S_HDMV/PGS
  106. Codec ID/Info                            : Picture based subtitle format used on BDs/HD-DVDs
  107. Duration                                 : 1 h 31 min
  108. Bit rate                                 : 30.4 kb/s
  109. Count of elements                        : 2272
  110. Stream size                              : 19.9 MiB (0%)
  111. Language                                 : English
  112. Default                                  : No
  113. Forced                                   : No
  114. Original source medium                   : Blu-ray
  115. Menu
  116. 00:00:00.000                             : en:Chapter 01
  117. 00:07:12.056                             : en:Chapter 02
  118. 00:18:09.588                             : en:Chapter 03
  119. 00:26:02.519                             : en:Chapter 04
  120. 00:36:11.711                             : en:Chapter 05
  121. 00:45:26.181                             : en:Chapter 06
  122. 00:54:40.652                             : en:Chapter 07
  123. 01:02:39.297                             : en:Chapter 08
  124. 01:11:50.848                             : en:Chapter 09
  125. 01:23:06.064                             : en:Chapter 10
复制代码



4K321提示您 点击下方附件即可下载

小岛惊魂 Voices.1973.1080p.BluRay.REMUX.AVC.LPCM.1.0-FGT 24.34GB

Voices.1973.1080p.BluRay.REMUX.AVC.LPCM.1.0-FGT.torrent ( 31.06 KB )

回复

使用道具 举报

全部回复0 显示全部楼层

声明:您在社区发表的所有信息仅代表用户个人观点,与本网站立场无关,希望各位烧友理性发言,不发表违法国家法律禁止的话题。

您需要登录后才可以回帖 登录 | 立即注册

本版积分规则

联系客服 关注微信 下载APP 返回顶部 返回列表