开启左侧

[喜剧片] 赌棍 Let.It.Ride.1989.1080p.BluRay.REMUX.AVC.DTS-HR.5.1-FGT 24.16GB

蓝鸟 发表于 2022-6-2 21:18:02 | 显示全部楼层 |阅读模式

赌棍 Let.It.Ride.1989.1080p.BluRay.REMUX.AVC.DTS-HR.5.1-FGT 24.16GB

赌棍 Let.It.Ride.1989.1080p.BluRay.REMUX.AVC.DTS-HR.5.1-FGT 24.16GB


译  名 赌棍
片  名 Let It Ride
年  代 1989
产  地 美国
类  别 喜剧 / 动作
语  言 英语
上映日期 1989-08-18
片  长 90 分钟
导  演 乔·皮特卡 Joe Pytka
编  剧 南希·多德 Nancy Dowd
演  员 Richard Lee-Sung Richard Lee-Sung
       托尼·隆哥 Tony Longo
       希德·雷蒙德 Sid Raymond
       David Schramm David Schramm
       罗伯特·陶尔斯 Robert Towers
       Edward Walsh Edward Walsh
       Jay W. Jensen Jay W. Jensen
       理查德·埃德森 Richard Edson
       Tom Kouchalakos Tom Kouchalakos
       S.A. Griffin S.A. Griffin
       Martin Garner Martin Garner
       罗彼·考特拉尼 Robbie Coltrane
       约瑟夫·沃尔什 Joseph Walsh
       大卫·约翰森 David Johansen
       米雪·菲利普斯 Michelle Phillips
       特瑞·加尔 Teri Garr
       Lorin Dreyfuss Lorin Dreyfuss
       理查德·德莱福斯 Richard Dreyfuss
       艾伦·加菲尔德 Allen Garfield
       詹妮弗·提莉 Jennifer Tilly
       玛丽·沃伦诺夫 Mary Woronov
       Rosanne Covy Rosanne Covy
       娜塔莉·德莱福斯 Natalie Dreyfuss
       Dee Dee Deering Dee Dee Deering
       Geraldine Dreyfuss Geraldine Dreyfuss
       辛西娅·尼克松 Cynthia Nixon
       Richard Stenta Richard Stenta
       内德·道德 Ned Dowd
       大卫·吉勒 David Giler
       乔治·莫罗德 Giorgio Moroder
       戴迪·艾伦 Dede Allen
       吉姆·米勒 Jim Miller
       沃利斯·尼西塔 Wallis Nicita
       William D. McLane William D. McLane
       沃尔夫·克罗伊格 Wolf Kroeger
       Mary Ann Valdes Mary Ann Valdes
       苏珊·V·卡利诺夫斯基 Susan V. Kalinowski

简  介

《赌徒》根据1974年的同名电影改编而成,沃尔伯格饰演的吉姆·本内特(Jim Bennett)既是大学英语文学教授,又是一个大手笔的赌徒。他让学生打假球,使自己在赌局中牟...


影片参数
  1. Video
  2. ID                                       : 1
  3. ID in the original source medium         : 4113 (0x1011)
  4. Format                                   : AVC
  5. Format/Info                              : Advanced Video Codec
  6. Format profile                           : [email protected]
  7. Format settings                          : CABAC / 4 Ref Frames
  8. Format settings, CABAC                   : Yes
  9. Format settings, Reference frames        : 4 frames
  10. Codec ID                                 : V_MPEG4/ISO/AVC
  11. Duration                                 : 1 h 30 min
  12. Bit rate mode                            : Variable
  13. Bit rate                                 : 32.0 Mb/s
  14. Maximum bit rate                         : 35.0 Mb/s
  15. Width                                    : 1 920 pixels
  16. Height                                   : 1 080 pixels
  17. Display aspect ratio                     : 16:9
  18. Frame rate mode                          : Constant
  19. Frame rate                               : 23.976 (24000/1001/189150) FPS
  20. Color space                              : YUV
  21. Chroma subsampling                       : 4:2:0
  22. Bit depth                                : 8 bits
  23. Scan type                                : Progressive
  24. Bits/(Pixel*Frame)                       : 0.643
  25. Stream size                              : 20.1 GiB (83%)
  26. Language                                 : English
  27. Default                                  : No
  28. Forced                                   : No
  29. Color range                              : Limited
  30. Color primaries                          : BT.709
  31. Transfer characteristics                 : BT.709
  32. Matrix coefficients                      : BT.709
  33. Original source medium                   : Blu-ray
  34. Audio #1
  35. ID                                       : 2
  36. ID in the original source medium         : 4352 (0x1100)
  37. Format                                   : DTS XBR
  38. Format/Info                              : Digital Theater Systems
  39. Commercial name                          : DTS-HD High Resolution Audio
  40. Codec ID                                 : A_DTS
  41. Duration                                 : 1 h 30 min
  42. Bit rate mode                            : Constant
  43. Bit rate                                 : 3 840 kb/s
  44. Channel(s)                               : 6 channels
  45. Channel layout                           : C L R Ls Rs LFE
  46. Sampling rate                            : 48.0 kHz
  47. Frame rate                               : 93.750 FPS (512 SPF)
  48. Bit depth                                : 24 bits
  49. Compression mode                         : Lossy
  50. Stream size                              : 2.42 GiB (10%)
  51. Title                                    : DTS-HR 5.1
  52. Language                                 : English
  53. Default                                  : Yes
  54. Forced                                   : No
  55. Original source medium                   : Blu-ray
  56. Audio #2
  57. ID                                       : 3
  58. ID in the original source medium         : 4353 (0x1101)
  59. Format                                   : PCM
  60. Format settings                          : Little / Signed
  61. Codec ID                                 : A_PCM/INT/LIT
  62. Duration                                 : 1 h 30 min
  63. Bit rate mode                            : Constant
  64. Bit rate                                 : 2 304 kb/s
  65. Channel(s)                               : 2 channels
  66. Sampling rate                            : 48.0 kHz
  67. Frame rate                               : 30.000 FPS (1600 SPF)
  68. Bit depth                                : 24 bits
  69. Stream size                              : 1.45 GiB (6%)
  70. Title                                    : LPCM 2.0
  71. Language                                 : English
  72. Default                                  : No
  73. Forced                                   : No
  74. Original source medium                   : Blu-ray
  75. Audio #3
  76. ID                                       : 4
  77. ID in the original source medium         : 4354 (0x1102)
  78. Format                                   : AC-3
  79. Format/Info                              : Audio Coding 3
  80. Commercial name                          : Dolby Digital
  81. Codec ID                                 : A_AC3
  82. Duration                                 : 1 h 30 min
  83. Bit rate mode                            : Constant
  84. Bit rate                                 : 224 kb/s
  85. Channel(s)                               : 2 channels
  86. Channel layout                           : L R
  87. Sampling rate                            : 48.0 kHz
  88. Frame rate                               : 31.250 FPS (1536 SPF)
  89. Compression mode                         : Lossy
  90. Stream size                              : 145 MiB (0%)
  91. Title                                    : DD 2.0
  92. Language                                 : English
  93. Service kind                             : Complete Main
  94. Default                                  : No
  95. Forced                                   : No
  96. Original source medium                   : Blu-ray
  97. Text #1
  98. ID                                       : 5
  99. Format                                   : UTF-8
  100. Codec ID                                 : S_TEXT/UTF8
  101. Codec ID/Info                            : UTF-8 Plain Text
  102. Duration                                 : 1 h 24 min
  103. Bit rate                                 : 73 b/s
  104. Count of elements                        : 1186
  105. Stream size                              : 45.5 KiB (0%)
  106. Language                                 : English
  107. Default                                  : Yes
  108. Forced                                   : No
  109. Text #2
  110. ID                                       : 6
  111. ID in the original source medium         : 4608 (0x1200)
  112. Format                                   : PGS
  113. Muxing mode                              : zlib
  114. Codec ID                                 : S_HDMV/PGS
  115. Codec ID/Info                            : Picture based subtitle format used on BDs/HD-DVDs
  116. Duration                                 : 1 h 24 min
  117. Bit rate                                 : 31.1 kb/s
  118. Count of elements                        : 2416
  119. Stream size                              : 18.8 MiB (0%)
  120. Language                                 : English
  121. Default                                  : No
  122. Forced                                   : No
  123. Original source medium                   : Blu-ray
  124. Menu
  125. 00:00:00.000                             : en:Chapter 01
  126. 00:09:58.723                             : en:Chapter 02
  127. 00:15:32.181                             : en:Chapter 03
  128. 00:20:27.184                             : en:Chapter 04
  129. 00:25:25.440                             : en:Chapter 05
  130. 00:32:03.838                             : en:Chapter 06
  131. 00:36:18.342                             : en:Chapter 07
  132. 00:44:07.978                             : en:Chapter 08
  133. 00:53:12.606                             : en:Chapter 09
  134. 01:05:57.828                             : en:Chapter 10
  135. 01:13:44.002                             : en:Chapter 11
  136. 01:25:33.336                             : en:Chapter 12
复制代码



4K321提示您 点击下方附件即可下载

赌棍 Let.It.Ride.1989.1080p.BluRay.REMUX.AVC.DTS-HR.5.1-FGT 24.16GB

Let.It.Ride.1989.1080p.BluRay.REMUX.AVC.DTS-HR.5.1-FGT.torrent ( 30.84 KB )

回复

使用道具 举报

全部回复0 显示全部楼层

声明:您在社区发表的所有信息仅代表用户个人观点,与本网站立场无关,希望各位烧友理性发言,不发表违法国家法律禁止的话题。

您需要登录后才可以回帖 登录 | 立即注册

本版积分规则

联系客服 关注微信 下载APP 返回顶部 返回列表